1 сезон

1 сезон

iTunes

1

КиноПоиск HD

Кинопоиск HD

iTunes

13

1 сезон

RePack

30

Ultimate

ВАЖНО

ИГРА 18+

pack

RePack

MK11
pack

Легкие деньги

RePack

jed

RePack

fifa19

RePack

RDR2

RePack

NEED FOR SPEED™ PAYBACK

4 сезон

9 сезон

Бесстыжие 9 сезон

Все сериалы

все сериалы на PB.wtf

RePack

FAR CRY 5
  
Magnet ссылка

Ловец снов / Dreamcatcher (Лоуренс Каздан) [2003 г., Фантастика, Ужасы, Триллер, DVDRip, DUB, лицензия] pb.wtf

Ловец снов через торрент pb.wtf

Размер: 2.25 GB | Добавлен: 8 лет 3 мес. назад | Торрент скачан:320 раз
Скачать  

13-01-2013 04:10 Ловец снов Скачать торрент  

Ловец снов / Dreamcatcher

Год выпуска: 2003
Страна: США, Австралия
Жанр: Фантастика, Ужасы, Триллер
Продолжительность: 02:08:39
Перевод: Дубляж, Лицензия

Режиссер: Лоуренс Каздан
Продюссер: Лоуренс Кэздан, Чарльз Окун, Брюс Берман
Сценарий: Уильям Голдмен, Лоуренс Кэздан, Стивен Кинг

Бюджет: $68 000 000
Премьера в мире: 6 марта 2003

MPAA: R- лицам до 17 лет обязательно присутствие взрослого
IMDb: 5.40 (52 452)
Кинопоиск: 6.698 16 441

В ролях: Морган Фриман, Томас Джейн, Джейсон Ли, Дамиан Льюис, Тимоти Олифант, Том Сайзмор, Донни Уолберг, Майки Хоулкамп, Рис Томпсон, Джакомо Бессато

Описание: Джонси, Генри, Пит и Бивер. Двадцать лет назад они были просто мальчишками, проживающими в одном небольшом городке штата Мэн, — детьми, нашедшими в себе достаточно мужества, чтобы героически ответить на детскую жестокость. Награда за спасение странноватого мальчика по имени Даддитс совершенно неожиданно пришла к ним в виде сверхъестественных сил, связавших всех пятерых крепчайшими узами братства.

Но когда на ежегодной охоте друзья собираются вместе в лесной хижине, то вместо ожидаемой теплой веселой атмосферы над ними начинает сгущаться абсолютное зло, приносящее гибель. Сначала к ним попадает незнакомец — затерявшийся в лесу охотник, которому и невдомек, что его организм поражен смертельной заразой. А вслед за ним возникает неистовствующий снежный буран, в эпицентре которого движется нечто еще более зловещее… Впереди — крупнейшее противостояние ужасу, не имеющему аналогов.

Доп. информация: релиз на DVD 14 апреля 2011, «CP-Digital»

Качество: DVDRip
Формат: MKV
Видео кодек: AVC
Аудио кодек: AC3
Видео: 1870 Кбит/сек,720*304 (2,35:1), 23,976 кадр/сек,AVC
Аудио#1: 256 Кбит/сек,48,0 КГц, 16 бит,6 каналов, АС-3 Русский дубляж
Аудио#2: 256 Кбит/сек,48,0 КГц, 16 бит,6 каналов, АС-3 Русский Двухголосый закадровый
Аудио#3: 128 Кбит/сек,48,0 КГц, 16 бит, 2,0 каналов, АС-3 оригинал










Общее
Уникальный идентификатор : 231904878239259927326279207745272022076 (0xAE774142C4925320A443E3AD5532043C)
Полное имя : D:TorrentЛовец снов.2003.mkv
Формат : Matroska
Версия формата : Version 2
Размер файла : 2,25 Гбайт
Продолжительность : 2 ч. 8 м.
Общий поток : 2502 Кбит/сек
Название фильма : =EvG78=
Дата кодирования : UTC 2013-01-12 11:51:28
Программа кодирования : mkvmerge v5.3.0 ('I could have danced') built on Feb 9 2012 10:38:07
Библиотека кодирования : libebml v1.2.3 + libmatroska v1.3.0

Видео
Идентификатор : 1
Формат : AVC
Формат/Информация : Advanced Video Codec
Профиль формата : High@L3.0
Параметр CABAC формата : Да
Параметр ReFrames формата : 8 кадров
Режим смешивания : Header stripping
Идентификатор кодека : V_MPEG4/ISO/AVC
Продолжительность : 2 ч. 8 м.
Битрейт : 1870 Кбит/сек
Ширина : 720 пикс.
Высота : 304 пикс.
Соотношение сторон : 2,35:1
Частота кадров : 23,976 кадр/сек
Цветовое пространство : YUV
Подвыборка цветности : 4:2:0
Битовая глубина : 8 бит
Тип развёртки : Прогрессивная
Бит/(Пиксели*Кадры) : 0.356
Размер потока : 1,63 Гбайт (72%)
Библиотека кодирования : x264 core 112
Настройки программы : cabac=1 / ref=8 / deblock=1:-2:-2 / analyse=0x3:0x113 / me=umh / subme=9 / psy=1 / psy_rd=1.00:0.00 / mixed_ref=0 / me_range=16 / chroma_me=1 / trellis=0 / 8x8dct=1 / cqm=0 / deadzone=21,11 / fast_pskip=1 / chroma_qp_offset=-2 / threads=3 / sliced_threads=0 / nr=0 / decimate=1 / interlaced=0 / constrained_intra=0 / bframes=8 / b_pyramid=2 / b_adapt=1 / b_bias=0 / direct=1 / weightb=0 / open_gop=0 / weightp=2 / keyint=240 / keyint_min=23 / scenecut=40 / intra_refresh=0 / rc_lookahead=40 / rc=abr / mbtree=1 / bitrate=1870 / ratetol=1.0 / qcomp=0.60 / qpmin=3 / qpmax=51 / qpstep=4 / ip_ratio=1.40 / aq=1:1.00
Язык : English
Основные цвета : BT.601-6 525, BT.1358 525, BT.1700 NTSC, SMPTE 170M
Характеристики трансфера : BT.709-5, BT.1361
Коэффициенты матрицы : BT.601-6 525, BT.1358 525, BT.1700 NTSC, SMPTE 170M

Аудио #1
Идентификатор : 2
Формат : AC-3
Формат/Информация : Audio Coding 3
Расширение режима : CM (complete main)
Режим смешивания : Header stripping
Идентификатор кодека : A_AC3
Продолжительность : 2 ч. 8 м.
Вид битрейта : Постоянный
Битрейт : 256 Кбит/сек
Каналы : 6 каналов
Расположение каналов : Front: L C R, Side: L R, LFE
Частота : 48,0 КГц
Битовая глубина : 16 бит
Метод сжатия : С потерями
Размер потока : 236 Мбайт (10%)
Заголовок : DUB 5.1 ch
Язык : Russian

Аудио #2
Идентификатор : 3
Формат : AC-3
Формат/Информация : Audio Coding 3
Расширение режима : CM (complete main)
Режим смешивания : Header stripping
Идентификатор кодека : A_AC3
Продолжительность : 2 ч. 8 м.
Вид битрейта : Постоянный
Битрейт : 256 Кбит/сек
Каналы : 6 каналов
Расположение каналов : Front: L C R, Side: L R, LFE
Частота : 48,0 КГц
Битовая глубина : 16 бит
Метод сжатия : С потерями
Размер потока : 236 Мбайт (10%)
Заголовок : DVO
Язык : Russian

Аудио #3
Идентификатор : 4
Формат : AC-3
Формат/Информация : Audio Coding 3
Расширение режима : CM (complete main)
Режим смешивания : Header stripping
Идентификатор кодека : A_AC3
Продолжительность : 2 ч. 8 м.
Вид битрейта : Постоянный
Битрейт : 128 Кбит/сек
Каналы : 2 канала
Расположение каналов : Front: L R
Частота : 48,0 КГц
Битовая глубина : 16 бит
Метод сжатия : С потерями
Размер потока : 118 Мбайт (5%)
Язык : English

pb.wtf



Скачать Ловец снов через торрент https://pic.kartinco.top/images/1/kwynrmwa9w.jpg Скачать фильм Ловец снов через торрент бесплантно в хорошем качестве Описание: Джонси, Генри, Пит и Бивер. Двадцать лет назад они были просто мальчишками, проживающими в одном небольшом городке штата Мэн, — ... 8.5 10 6
Info! Золотая раздача, скачанное не засчитывается.
Торрент: Зарегистрирован [2013-01-13 04:10] · скачан: 320 раз
Статус: √ проверено
Размер: 2.25 GB
Как cкачать? Как скачать Ловец снов через торрент | UTorrent

% Раздел Тема Автор DL S | L
Фильмы [HD 720p, 1080p] (Хороший звук DUB, MVO) [ 8.59 GB ] Ловец снов / Dreamcatcher [2003 BDRip-HEVC 1080p ] DUB+MVO+DVO+2xAVO bober100 Скачать
2 | 0
Фильмы (Blu-ray, BD-Remux, HDDVD) [ 43.6 GB ] Ловец снов / Dreamcatcher [2003 BD Remux 1080p] DUB+2xDVO+5xAVO+3xMVO bober100 Скачать
2 | 0
Фильмы 2001-2005 [ 2.18 GB ] Ловец снов / Dreamcatcher [2003 BDRip DUB лицензия] Ворон Скачать
1 | 0
Фильмы [HD 720p, 1080p] (Хороший звук DUB, MVO) [ 5.66 GB ] Ловец снов / Dreamcatcher [2003 BDRip 720p] DUB MVO AVO msltel Скачать
1 | 0
Фильмы [HD 720p, 1080p] (Хороший звук DUB, MVO) [ 12.26 GB ] Ловец снов / Dreamcatcher [2003 BDRip 1080p] DUB MVO AVO msltel Скачать
1 | 0
Фильмы 2001-2005 [ 2.98 GB ] Ловец снов / Dreamcatcher [2003 BDRip] DUB MVO AVO msltel Скачать
1 | 0
Фильмы 2001-2005 [ 1.46 GB ] Ловец снов / Dreamcatcher [2003 HDTVRip] -=BIGBOSS=- Скачать
1 | 0

28-11-2019 20:33  

Отключить всю рекламу на сайте

13-01-2013 05:59 Ловец снов Скачать торрент  

Описание не совсем соответствует фильму! Просто - фильм по С.Кингу!pb.wtf



13-01-2013 12:12 Ловец снов Скачать торрент  

Хорошее кино. Не совсем по книге..., но.... Совет. Желательно прочитать книгу перед просмотром, или посмотреть кино, но книгу потом не читать.)) Спасибо!!!pb.wtf



    Дорогой пользователь! Огромная просьба, поблагодарите релизера, оцените раздачу и оставьте свои комментарий, если Вы скачали Ловец снов через торрент бесплатно! Внесите свою лепту в развитие PiratBit!
    Комментировать посты могут только пользователи прошедшие не сложную регистрацию
    Показать сообщения:    

    Ловец снов через торрент
    Скачать бесплатно Ловец снов
    Ловец снов скачать торрент
    Ловец снов смотреть онлайн
    Cкачать фильм Ловец снов бесплатно
    Ловец снов скачать торрент в хорошем качестве
    Ловец снов смотреть онлайн бесплатно в хорошем качестве


    Вы не можете начинать темы
    Вы не можете отвечать на сообщения
    Вы не можете редактировать свои сообщения
    Вы не можете удалять свои сообщения
    Вы не можете голосовать в опросах
    Вы не можете прикреплять файлы к сообщениям
    Вы можете скачивать файлы