Всегда рабочее зеркало без VPN и Proxy просто перед .vidak.icu напиши любое слово или цифру, Пример http://i24g.vidak.icu

MVO

MVO

1 сезон

1

1 сезон

iTunes

1 сезон

13

1 сезон

Deluxe

pack

Рекомендуем

Repack

30

ВАЖНО

RePack

MK11

RePack

jed

RePack

fifa19

RePack

RDR2

RePack

NEED FOR SPEED™ PAYBACK

Кинопоиск HD

6 сезон

 Острые козырьки 6 сезон

Все сериалы

все сериалы на PB.wtf

RePack

FAR CRY 5
  
Magnet ссылка

Весенние обряды / Весенние ритуалы / Rites of Spring (Пэдрейг Рейнольдс) [2011 г., триллер, DVDRip, DVO] pb.wtf

Весенние обряды через торрент pb.wtf

Размер: 1.37 GB | Добавлен: 9 лет 6 мес. назад | Торрент скачан:37 раз
Смотреть онлайн Весенние обряды | Скачать    Ребята, помогите собрать деньги на оплату серверов!!!

13-01-2013 18:49 Весенние обряды Скачать торрент  

Весенние обряды / Весенние ритуалы / Rites of Spring

Год выпуска: 2011
Страна: США / Ghostrider Entertainment, Vigilante Ent, White Rock Lake Productions
Жанр: триллер
Продолжительность: 01:20:18
Озвучивание: Любительское двухголосое [den904, DeadSno], перевод [ МЕГАПЫХАРЬ]

Режиссер: Пэдрейг Рейнольдс

В ролях: Кэтрин Рэндолф, Энесса Ремси, Сонни Маринелли, Ай Бауэн, Марко Ст. Джон, Шанна Форресталль, Sarah Pachelli, Ханна Лин Брайан, Эндрю Бреланд, Джеймс Бэртс

Описание: Похитив девятилетнюю дочь богача, несколько преступников укрываются в заброшенном здании, где они сами становятся жертвами неизвестного, который, каждый год в первый день весны, выходит на кровавую охоту…




Качество: DVDRip
Формат: AVI
Видео кодек: XviD
Аудио кодек: AC3
Видео: 720x304, 2248 kb/s, 23.976 fps
Аудио: 48 kHz, AC3, 192 kb/s (2 ch)
Релиз группы: &

General
Complete name : G:Vesenn1e.r1tualy.2011.L2.DVDRip.1400MB.avi
Format : AVI
Format/Info : Audio Video Interleave
File size : 1.37 GiB
Duration : 1h 20mn
Overall bit rate : 2 449 Kbps
Movie name : Rites of Spring (2011)
Director : ed_rez
Writing application : VirtualDubMod 1.5.10.3 (build 2550/release)
Video #0
ID : 0
Format : MPEG-4 Visual
Format profile : Advanced [email protected]
Format settings, BVOP : 2
Format settings, QPel : No
Format settings, GMC : No warppoints
Format settings, Matrix : Default (H.263)
Codec ID : XVID
Codec ID/Hint : XviD
Duration : 1h 20mn
Bit rate : 2 248 Kbps
Width : 720 pixels
Height : 304 pixels
Display aspect ratio : 2.35:1
Frame rate : 23.976 fps
Color space : YUV
Chroma subsampling : 4:2:0
Bit depth : 8 bits
Scan type : Progressive
Compression mode : Lossy
Bits/(Pixel*Frame) : 0.428
Stream size : 1.26 GiB (92%)
Writing library : XviD 1.2.1 (UTC 2008-12-04)
Audio #1
ID : 1
Format : AC-3
Format/Info : Audio Coding 3
Mode extension : CM (complete main)
Format settings, Endianness : Big
Codec ID : 2000
Duration : 1h 20mn
Bit rate mode : Constant
Bit rate : 192 Kbps
Channel(s) : 2 channels
Channel positions : Front: L R
Sampling rate : 48.0 KHz
Bit depth : 16 bits
Compression mode : Lossy
Stream size : 110 MiB (8%)
Alignment : Split accross interleaves
Interleave, duration : 42 ms (1.00 video frame)
Interleave, preload duration : 500 ms






pb.wtf



Скачать Весенние обряды через торрент https://pic1.kartinco.top/images/111/hyrexw19st.jpg Скачать, смотреть онлайн Весенние обряды бесплантно в хорошем качестве Описание: Похитив девятилетнюю дочь богача, несколько преступников укрываются в заброшенном здании, где они сами становятся жертвами ... 5 10 1
Info! Золотая раздача, скачанное не засчитывается.
Торрент: Зарегистрирован [2013-01-13 18:49] · скачан: 37 раз
Статус: T временная
Размер: 1.37 GB
Как cкачать? Как скачать Весенние обряды через торрент | UTorrent

% Раздел Тема Автор DL S | L
T Фильмы 2011 [ 690 MB ] Весенние обряды / Весенние ритуалы / Rites of Spring [2011 DVDRip DVO] Twi7ter Скачать
1 | 0

28-11-2019 20:33  

Отключить вcю реклaмy на сайте

    Дорогой пользователь! Огромная просьба, поблагодарите релизера, оцените раздачу и оставьте свои комментарий, если Вы скачали Весенние обряды через торрент бесплатно!
    Комментировать посты могут только пользователи прошедшие не сложную регистрацию
    Показать сообщения:    

    Весенние обряды через торрент
    Скачать бесплатно Весенние обряды
    Весенние обряды скачать торрент
    Весенние обряды смотреть онлайн
    Cкачать фильм Весенние обряды бесплатно
    Весенние обряды скачать торрент в хорошем качестве
    Весенние обряды смотреть онлайн бесплатно в хорошем качестве


    Вы не можете начинать темы
    Вы не можете отвечать на сообщения
    Вы не можете редактировать свои сообщения
    Вы не можете удалять свои сообщения
    Вы не можете голосовать в опросах
    Вы не можете прикреплять файлы к сообщениям
    Вы можете скачивать файлы