Ссылка на приватное зеркало нашего сайта всего за 1$. Внимание количество ограничено!!!

2 сезон

iTunes

1 сезон

1

iTunes

iTunes

iTunes

1 сезон

RePack

30

ИГРА 18+

pack

ВАЖНО

!!Акция!!

Alien_RageХит недели

RePack

MK11
pack

Забери бонус

RePack

jed

!!Акция!!

Alien_Rage

RePack

fifa19

RePack

Assassins Creed: Odyssey

RePack

NEED FOR SPEED™ PAYBACK

4 сезон

9 сезон

Бесстыжие 9 сезон

Все сериалы

все сериалы на PB.wtf

RePack

FAR CRY 5
  

Замок лгунов (Геннадий Сокольский) [1983 г., мультфильм, короткометражка, DVDRip] pb.wtf

Замок лгунов через торрент pb.wtf

Размер: 319 MB | Добавлен: 7 лет 9 мес. назад | Торрент скачан:115 раз
Скачать  

16-01-2013 09:36 Замок лгунов Скачать торрент  

Замок лгунов

Год выпуска: 1983
Страна: СССР
Жанр: мультфильм, короткометражка
Продолжительность: 00:16:02
Перевод: Не требуется

Режиссер: Геннадий Сокольский
Продюссер: Нинель Липницкая
Сценарий: Анатолий Петров, Геннадий Сокольский

Мировой рейтинг IMDB


В ролях: Евгений Стеблов

Описание: С героем фильма, любившем лгать, происходят невероятные приключения, благодаря которым он приходит к выводу, что лучше говорить правду.

Качество: DVDRip
Формат: AVI
Видео кодек: XviD
Аудио кодек: AC3
Видео: 720x544 (1.32:1), 25 fps, XviD build 50 ~2386 kbps avg, 0.24 bit/pixel
Аудио#1: 48 kHz, AC3 Dolby Digital, 2/0 (L,R) ch, ~384 kbps
скриншот   скриншот   скриншот   скриншот   скриншот   скриншот   скриншот   скриншот  

Общее
Полное имя : F:ЗакачкиZamok.Lgunov.1983.DVDRip.avi
Формат : AVI
Формат/Информация : Audio Video Interleave
Размер файла : 319 Мбайт
Продолжительность : 16 м.
Общий поток : 2780 Кбит/сек
Программа кодирования : VirtualDubMod 1.5.10.3 | www.virtualdub-fr.org || (build 2550/release)
Библиотека кодирования : VirtualDubMod build 2550/release

Видео
Идентификатор : 0
Формат : MPEG-4 Visual
Профиль формата : Advanced Simple@L5
Параметр BVOP формата : 2
Параметр QPel формата : Нет
Параметр GMC формата : Без точки перехода
Параметр матрицы формата : Default (H.263)
Идентификатор кодека : XVID
Идентификатор кодека/Подсказка : XviD
Продолжительность : 16 м.
Битрейт : 2386 Кбит/сек
Ширина : 720 пикселей
Высота : 544 пикселя
Соотношение сторон : 4:3
Частота кадров : 25,000 кадров/сек
Цветовое пространство : YUV
Субдискретизация насыщенности : 4:2:0
Битовая глубина : 8 бит
Тип развёртки : Прогрессивная
Метод сжатия : С потерями
Бит/(Пиксели*Кадры) : 0.244
Размер потока : 274 Мбайт (86%)
Библиотека кодирования : XviD 1.2.1 (UTC 2008-12-04)

Аудио
Идентификатор : 1
Формат : AC-3
Формат/Информация : Audio Coding 3
Расширение режима : CM (complete main)
Идентификатор кодека : 2000
Продолжительность : 16 м.
Вид битрейта : Постоянный
Битрейт : 384 Кбит/сек
Каналы : 2 канала
Расположение каналов : Front: L R
Частота : 48,0 КГц
Битовая глубина : 16 бит
Метод сжатия : С потерями
Размер потока : 44,1 Мбайт (14%)
Выравнивание : Разделение по промежуткам
Продолжительность промежутка : 40 мс. (1,00 видеокадр)
Время предзагрузки промежутка : 500 мс.


Замок лгунов скачать торрент


pb.wtf



Скачать Замок лгунов через торрент http://i53.fastpic.ru/big/2013/0116/c2/749f7d32b74a9f14fa003820a645d9c2.jpg Скачать фильм Замок лгунов через торрент бесплантно в хорошем качестве Описание: С героем фильма, любившем лгать, происходят невероятные приключения, благодаря которым он приходит к выводу, что лучше говорить ... 9.6 10 5
Info! Золотая раздача, скачанное не засчитывается.
Торрент: Зарегистрирован [2013-01-16 09:36] · скачан: 115 раз
Статус: √ проверено
Размер: 319 MB
Как cкачать? Как скачать Замок лгунов через торрент | qTorrent

% Раздел Тема Автор DL S | L
Наши мультфильмы [ 342 MB ] Замок лгунов [1983 мультфильм короткометражка DVDRip-AVC] ADVOKAT69 Скачать
1 | 0

28-11-2019 20:33  

Отключить всю рекламу на сайте

    Дорогой пользователь! Огромная просьба, поблагодарите релизера, оцените раздачу и оставьте свои комментарий, если Вы скачали Замок лгунов через торрент бесплатно! Внесите свою лепту в развитие PiratBit!
    Комментировать посты могут только пользователи прошедшие не сложную регистрацию
    Показать сообщения:    

    Замок лгунов через торрент
    Скачать бесплатно Замок лгунов
    Замок лгунов скачать торрент
    Замок лгунов смотреть онлайн
    Cкачать фильм Замок лгунов бесплатно
    Замок лгунов скачать торрент в хорошем качестве
    Замок лгунов смотреть онлайн бесплатно в хорошем качестве


    Вы не можете начинать темы
    Вы не можете отвечать на сообщения
    Вы не можете редактировать свои сообщения
    Вы не можете удалять свои сообщения
    Вы не можете голосовать в опросах
    Вы не можете прикреплять файлы к сообщениям
    Вы можете скачивать файлы