Ссылка на приватное зеркало нашего сайта всего за 1$. Внимание количество ограничено!!!

2 сезон

iTunes

1 сезон

1

2 сезон

2 сезон

iTunes

1 сезон

RePack

30

Новинка

ВАЖНО

ИГРА 18+

pack

RePack

MK11
pack

Забери бонус

RePack

jed

!!Акция!!

Alien_Rage

RePack

fifa19

RePack

Assassins Creed: Odyssey

RePack

NEED FOR SPEED™ PAYBACK

4 сезон

9 сезон

Бесстыжие 9 сезон

Все сериалы

все сериалы на PB.wtf

RePack

FAR CRY 5
  

Дождик и Ботинки / Piss and Boots (Michael Lucas, Mr. Pam / Lucas Raunch, Lucas Entertainment) [2010 г., Gey- Oral/Anal Sex, Freshmen, Muscle, Dildos, Hairy, Fetish: Boot, Watersports, Uncut Cocks, Interracial, Rough Sex, Rimming, Tattoos, DVDRip, Ор pb.wtf

Дождик и Ботинки через торрент pb.wtf

Размер: 1.56 GB | Добавлен: 7 лет 10 мес. назад | Торрент скачан:175 раз
Скачать  

16-01-2013 12:30 Дождик и Ботинки Скачать торрент  

Дождик и Ботинки / Piss and Boots

Год выпуска: 2010
Страна: USA
Жанр: Gey- Oral/Anal Sex, Freshmen, Muscle, Dildos, Hairy, Fetish: Boot, Watersports, Uncut Cocks, Interracial, Rough Sex, Rimming, Tattoos
Продолжительность: 02:16:58
Перевод: Оригинал

Режиссер: Michael Lucas, Mr. Pam / Lucas Raunch, Lucas Entertainment

В ролях: Phillip Aubrey, Johnny Angel, Logan Stevens, Derrick Hanson, Shane Frost, R.J. Alexander, Jake Steel, A.J. Irons, Angyl Valentino

Описание: In Piss and Boots we strap nine sex pigs in piss soaked black leather boots and watch as they take kink to a lower level with dildo, breath, and cum play. The powerful fuck pros control their submissive slaves by drenching them in steaming warm showers, forcing them to worship, lick, and suck their master's boots clean.
pic

Качество: DVDRip
Формат: AVI
Видео кодек: XviD
Аудио кодек: AC3
Видео: 776x424 (1.83:1), 29.970 fps, XviD MPEG-4 ~1422 kbps avg, 0.14 bit/pixel
Аудио#1: 48 kHz, AC3 Dolby Digital, 2/0 (L,R) ch, ~192 kbps





Общее
Полное имя : D:TorrentPiss and Boots.avi
Формат : AVI
Формат/Информация : Audio Video Interleave
Размер файла : 1,56 Гбайт
Продолжительность : 2 ч. 16 м.
Общий поток : 1626 Кбит/сек
Программа кодирования : FairUse Wizard - http://fairusewizard.com
Библиотека кодирования : The best and REALLY easy backup tool

Видео
Идентификатор : 0
Формат : MPEG-4 Visual
Профиль формата : Advanced Simple@L5
Параметр BVOP формата : 2
Параметр QPel формата : Нет
Параметр GMC формата : Без точки перехода
Параметр матрицы формата : Default (H.263)
Режим смешивания : Сжатый битовый поток
Идентификатор кодека : XVID
Идентификатор кодека/Подсказка : XviD
Продолжительность : 2 ч. 16 м.
Битрейт : 1422 Кбит/сек
Ширина : 776 пикс.
Высота : 424 пикс.
Соотношение сторон : 16:9
Частота кадров : 29,970 кадр/сек
Цветовое пространство : YUV
Подвыборка цветности : 4:2:0
Битовая глубина : 8 бит
Тип развёртки : Прогрессивная
Метод сжатия : С потерями
Бит/(Пиксели*Кадры) : 0.144
Размер потока : 1,36 Гбайт (87%)
Библиотека кодирования : XviD 1.2.1 (UTC 2008-12-04)

Аудио
Идентификатор : 1
Формат : AC-3
Формат/Информация : Audio Coding 3
Расширение режима : CM (complete main)
Идентификатор кодека : 2000
Продолжительность : 2 ч. 16 м.
Вид битрейта : Постоянный
Битрейт : 192 Кбит/сек
Каналы : 2 канала
Расположение каналов : Front: L R
Частота : 48,0 КГц
Битовая глубина : 16 бит
Метод сжатия : С потерями
Размер потока : 188 Мбайт (12%)
Выравнивание : Разделение по промежуткам
Продолжительность промежутка : 33 мс. (1,00 видеокадр)
Время предзагрузки промежутка : 500 ms

pb.wtf



pack Скачать Дождик и Ботинки через торрент http://pic.kartinco.top/images/1/edx4ihxcwe.jpg Скачать фильм Дождик и Ботинки через торрент бесплантно в хорошем качестве Описание: In Piss and Boots we strap nine sex pigs in piss soaked black leather boots and watch as they take kink to a lower level with ... 9.6 10 8
Info! Золотая раздача, скачанное не засчитывается.
Торрент: Зарегистрирован [2013-01-16 12:30] · скачан: 175 раз
Статус: √ проверено
Размер: 1.56 GB
Как cкачать? Как скачать Дождик и Ботинки через торрент | qTorrent

28-11-2019 20:33  

Отключить всю рекламу на сайте

    Дорогой пользователь! Огромная просьба, поблагодарите релизера, оцените раздачу и оставьте свои комментарий, если Вы скачали Дождик и Ботинки через торрент бесплатно! Внесите свою лепту в развитие PiratBit!
    Комментировать посты могут только пользователи прошедшие не сложную регистрацию
    Показать сообщения:    

    Дождик и Ботинки через торрент
    Скачать бесплатно Дождик и Ботинки
    Дождик и Ботинки скачать торрент
    Дождик и Ботинки смотреть онлайн
    Cкачать фильм Дождик и Ботинки бесплатно
    Дождик и Ботинки скачать торрент в хорошем качестве
    Дождик и Ботинки смотреть онлайн бесплатно в хорошем качестве


    Вы не можете начинать темы
    Вы не можете отвечать на сообщения
    Вы не можете редактировать свои сообщения
    Вы не можете удалять свои сообщения
    Вы не можете голосовать в опросах
    Вы не можете прикреплять файлы к сообщениям
    Вы можете скачивать файлы