Ссылка на приватное зеркало всего за 1$. Внимание количество ограничено!!!

iTunes

iTunes

iTunes

1

iTunes

iTunes

iTunes

WEBRip

iTunes

30
pack

$ от Little Big

ВАЖНО

!!Акция!!

Alien_RageХит недели

RePack

Resident Evil 21

ИГРА 18+

pack

RePack

jed

!!Акция!!

Alien_Rage

RePack

fifa19

RePack

Assassins Creed: Odyssey

RePack

NEED FOR SPEED™ PAYBACK

4 сезон

9 сезон

Бесстыжие 9 сезон

Все сериалы

все сериалы на PB.wtf

RePack

FAR CRY 5
  

Секретное оружие (Виталий Воробьев) [2006 г., боевик, драма, мелодрама, военный, DVDRip] pb.wtf

Секретное оружие через торрент pb.wtf

Размер: 1.36 GB | Добавлен: 7 лет 6 мес. назад | Торрент скачан:74 раза
Скачать  

16-01-2013 13:56 Секретное оружие Скачать торрент  

СЕКРЕТНОЕ ОРУЖИЕ

Год выпуска: 2006
Страна: Россия
Жанр: боевик, драма, мелодрама, военный
Продолжительность: 1:42:43.
Перевод: Не требуется

Режиссер: Виталий Воробьев
Продюссер: Сергей Кучков
Сценарий: Вера Федорова

Мировой рейтинг IMDB 6.10 (10)


В ролях:

Кирилл Плетнёв, Иван Моховиков, Вадим Андреев, Михаил Присмотров, Сергей Жарков, Ян Цапник, Захар Ронжин, Олег Валкман, Лиза Арзамасова, Александр Сигуев

Описание:

Разведчики взвода лейтенанта Бесфамильного получают задание — проверить информацию о секретном бункере фашистов. Они успешно переходят линию фронта, но дальше все идет не так, как было запланировано...

Качество: DVDRip
Формат: AVI
Видео кодек: XviD
Аудио кодек: AC3
Видео: Xvid 688x384 25fps 1 696 Kbps
Аудио#1: Dolby AC3 48000Hz stereo 192kbps

General
Complete name
Format : AVI
Format/Info : Audio Video Interleave
File size : 1.36 GiB
Duration : 1h 42mn
Overall bit rate : 1 895 Kbps
Writing application : VirtualDubMod 1.5.4.1 (build 2178/release)
Writing library : VirtualDubMod build 2178/release

Video
ID : 0
Format : MPEG-4 Visual
Format profile : Advanced Simple@L5
Format settings, BVOP : 1
Format settings, QPel : No
Format settings, GMC : No warppoints
Format settings, Matrix : Custom
Codec ID : XVID
Codec ID/Hint : XviD
Duration : 1h 42mn
Bit rate : 1 696 Kbps
Width : 688 pixels
Height : 384 pixels
Display aspect ratio : 16:9
Frame rate : 25.000 fps
Color space : YUV
Chroma subsampling : 4:2:0
Bit depth : 8 bits
Scan type : Progressive
Compression mode : Lossy
Bits/(Pixel*Frame) : 0.257
Stream size : 1.22 GiB (90%)
Writing library : XviD 1.2.0.dev47 (UTC 2006-11-01)

Audio
ID : 1
Format : AC-3
Format/Info : Audio Coding 3
Mode extension : CM (complete main)
Format settings, Endianness : Big
Codec ID : 2000
Duration : 1h 42mn
Bit rate mode : Constant
Bit rate : 192 Kbps
Channel(s) : 2 channels
Channel positions : Front: L R
Sampling rate : 48.0 KHz
Bit depth : 16 bits
Compression mode : Lossy
Stream size : 141 MiB (10%)
Alignment : Split accross interleaves
Interleave, duration : 96 ms (2.40 video frames)
Interleave, preload duration : 96 ms
Language : Russian




скриншот  скриншот  скриншот  pb.wtf



Скачать Секретное оружие через торрент http://s018.radikal.ru/i521/1301/e2/51f2e97431fd.jpg Скачать фильм Секретное оружие через торрент бесплантно в хорошем качестве Описание: Разведчики взвода лейтенанта Бесфамильного получают задание — проверить информацию о секретном бункере фашистов. Они успешно ... 10 10 3
Info! Золотая раздача, скачанное не засчитывается.
Торрент: Зарегистрирован [2013-01-16 13:56] · скачан: 74 раз
Статус: √ проверено
Размер: 1.36 GB
Как cкачать? Как скачать Секретное оружие через торрент | qTorrent

% Раздел Тема Автор DL S | L
Наши новые фильмы 2018-2019 [ 1.46 GB ] Приказ "Уничтожить" / Секретное оружие [2019 Военный BDRip] [Русский] [] Twi7ter Скачать
21 | 0
Наши новые фильмы 2018-2019 [ 1.46 GB ] Приказ "Уничтожить" / Секретное оружие [2019 Военный BDRip] [GER Transfer / BD GER] bober100 Скачать
1 | 0
Наши фильмы (HD, WEB-DL 720p, 1080p) [ 7.26 GB ] Приказ "Уничтожить" / Секретное оружие [2019 Военный BDRip 1080p] [GER Transfer / BD GER] bober100 Скачать
3 | 0
Наши новые фильмы 2018-2019 [ 1.46 GB ] Приказ "Уничтожить" / Секретное оружие [2019 Военный BDRip-AVC] [GER Transfer / BD GER] bober100 Скачать
2 | 0
Наши фильмы (HD, WEB-DL 720p, 1080p) [ 3.68 GB ] Секретное оружие [2019 Военный BDRip 720p] [GER Transfer / BD GER] - ExKinoRay Enigma2010 Скачать
30 | 0
Наши фильмы (Blu-ray, BD-Remux, HDDVD) [ 22.21 GB ] Приказ "Уничтожить" / Секретное оружие [2019 Военный Blu-ray 1080i] [GER Transfer / BD GER] bober100 Скачать
2 | 0
Военное дело [ 519 MB ] Секретное оружие шпионов [2015 документальный SATRip] [17.10] -Lexx- Скачать
1 | 0

28-11-2019 20:33  

Отключить всю рекламу на сайте

    Дорогой пользователь! Огромная просьба, поблагодарите релизера, оцените раздачу и оставьте свои комментарий, если Вы скачали Секретное оружие через торрент бесплатно! Внесите свою лепту в развитие PiratBit!
    Комментировать посты могут только пользователи прошедшие не сложную регистрацию
    Показать сообщения:    

    Секретное оружие через торрент
    Скачать бесплатно Секретное оружие
    Секретное оружие скачать торрент
    Секретное оружие смотреть онлайн
    Cкачать фильм Секретное оружие бесплатно
    Секретное оружие скачать торрент в хорошем качестве
    Секретное оружие смотреть онлайн бесплатно в хорошем качестве


    Вы не можете начинать темы
    Вы не можете отвечать на сообщения
    Вы не можете редактировать свои сообщения
    Вы не можете удалять свои сообщения
    Вы не можете голосовать в опросах
    Вы не можете прикреплять файлы к сообщениям
    Вы можете скачивать файлы