Ссылка на приватное зеркало всего за 1$. Внимание количество ограничено!!!

iTunes

iTunes

iTunes

1

iTunes

iTunes

iTunes

WEBRip

iTunes

30
pack

$ от Little Big

ВАЖНО

!!Акция!!

Alien_RageХит недели

RePack

Resident Evil 21

ИГРА 18+

pack

RePack

jed

!!Акция!!

Alien_Rage

RePack

fifa19

RePack

Assassins Creed: Odyssey

RePack

NEED FOR SPEED™ PAYBACK

4 сезон

9 сезон

Бесстыжие 9 сезон

Все сериалы

все сериалы на PB.wtf

RePack

FAR CRY 5
  

Неслужебное задание (Виталий Воробьев) [2004 г., боевик, военный, DVDRip] pb.wtf

Неслужебное задание через торрент pb.wtf

Размер: 1.37 GB | Добавлен: 7 лет 6 мес. назад | Торрент скачан:90 раз
Скачать  

16-01-2013 15:05 Неслужебное задание Скачать торрент  

Неслужебное задание

Год выпуска: 2004
Страна: Россия
Жанр: боевик, военный
Продолжительность: 01:33:04
Перевод: Не требуется

Режиссер: Виталий Воробьев
Продюссер: Сергей Кучков, Елена Вашуркина
Сценарий: Вера Федорова, Сергей Сергеев

Мировой рейтинг IMDB 6.30 (60)


В ролях:

Павел Майков, Михаил Присмотров, Сергей Греков, Алексей Ильин, Василий Слюсаренко, Роман Квашнин, Григорий Калинин, Тимур Савин, Игорь Салимонов, Екатерина Масловская

Описание:

Войны заканчиваются не тогда, когда под тем или иным документом поставлена маршальская подпись, а когда прекращают стрелять. Действие фильма происходит сразу после войны на территории Чехии. Германия капитулировала, но в тылах Советской Армии еще продолжают сопротивляться разрозненные фашистские отряды.Командиру разведроты старшему лейтенанту Воронкову приказано обезвредить одну из таких немецких групп. Собственных сил не хватает, поэтому Воронков обращается к соседям — казачьему соединению. Задание поначалу кажется несложным. Но рядовая погоня превращается в смертельную схватку...

Качество: DVDRip
Формат: AVI
Видео кодек: XviD
Аудио кодек: AC3
Видео: Xvid 720x448, 25fps, 1 869 Kbps.
Аудио#1: Dolby AC3, 48000Hz, stereo, 224kbps.

General

Format : AVI
Format/Info : Audio Video Interleave
File size : 1.37 GiB
Duration : 1h 33mn
Overall bit rate : 2 100 Kbps
Writing application : VirtualDubMod 1.5.4.1 (build 2178/release)
Writing library : VirtualDubMod build 2178/release

Video
ID : 0
Format : MPEG-4 Visual
Format profile : Advanced Simple@L5
Format settings, BVOP : 1
Format settings, QPel : No
Format settings, GMC : No warppoints
Format settings, Matrix : Custom
Codec ID : XVID
Codec ID/Hint : XviD
Duration : 1h 33mn
Bit rate : 1 869 Kbps
Width : 720 pixels
Height : 448 pixels
Display aspect ratio : 1.607
Frame rate : 25.000 fps
Color space : YUV
Chroma subsampling : 4:2:0
Bit depth : 8 bits
Scan type : Progressive
Compression mode : Lossy
Bits/(Pixel*Frame) : 0.232
Stream size : 1.21 GiB (89%)
Writing library : XviD 1.2.0.dev47 (UTC 2006-11-01)

Audio
ID : 1
Format : AC-3
Format/Info : Audio Coding 3
Mode extension : CM (complete main)
Format settings, Endianness : Big
Codec ID : 2000
Duration : 1h 33mn
Bit rate mode : Constant
Bit rate : 224 Kbps
Channel(s) : 2 channels
Channel positions : Front: L R
Sampling rate : 48.0 KHz
Bit depth : 16 bits
Compression mode : Lossy
Stream size : 149 MiB (11%)
Alignment : Split accross interleaves
Interleave, duration : 96 ms (2.40 video frames)
Interleave, preload duration : 96 ms
Language : Russian



скриншот  скриншот  скриншот  


pb.wtf



Скачать Неслужебное задание через торрент http://s019.radikal.ru/i629/1301/e2/73235b2ddf8d.jpg Скачать фильм Неслужебное задание через торрент бесплантно в хорошем качестве Описание: Войны заканчиваются не тогда, когда под тем или иным документом поставлена маршальская подпись, а когда прекращают стрелять. ... 9.2 10 5
Info! Золотая раздача, скачанное не засчитывается.
Торрент: Зарегистрирован [2013-01-16 15:05] · скачан: 90 раз
Статус: √ проверено
Размер: 1.37 GB
Как cкачать? Как скачать Неслужебное задание через торрент | qTorrent

% Раздел Тема Автор DL S | L
Наши фильмы, до 2010 [ 4.28 GB ] Неслужебное задание.Трилогия. [2004-2006 военный DVDRip] lug30 Скачать
1 | 0
Наши фильмы, до 2010 [ 1.46 GB ] Неслужебное задание 2: Взрыв на рассвете [2005 военный DVDRip] Anonymous Скачать
1 | 0
Наши фильмы, до 2010 [ 1.37 GB ] Неслужебное задание / Nesluzhebnoe zadanie [2004 военный DVDRip] feldeger Скачать
1 | 0

28-11-2019 20:33  

Отключить всю рекламу на сайте

16-01-2013 17:30 Неслужебное задание Скачать торрент  

    Дорогой пользователь! Огромная просьба, поблагодарите релизера, оцените раздачу и оставьте свои комментарий, если Вы скачали Неслужебное задание через торрент бесплатно! Внесите свою лепту в развитие PiratBit!
    Комментировать посты могут только пользователи прошедшие не сложную регистрацию
    Показать сообщения:    

    Неслужебное задание через торрент
    Скачать бесплатно Неслужебное задание
    Неслужебное задание скачать торрент
    Неслужебное задание смотреть онлайн
    Cкачать фильм Неслужебное задание бесплатно
    Неслужебное задание скачать торрент в хорошем качестве
    Неслужебное задание смотреть онлайн бесплатно в хорошем качестве


    Вы не можете начинать темы
    Вы не можете отвечать на сообщения
    Вы не можете редактировать свои сообщения
    Вы не можете удалять свои сообщения
    Вы не можете голосовать в опросах
    Вы не можете прикреплять файлы к сообщениям
    Вы можете скачивать файлы