Ссылка на приватное зеркало нашего сайта всего за 1$. Внимание количество ограничено!!!

2 сезон

iTunes

1 сезон

1

2 сезон

2 сезон

iTunes

1 сезон

RePack

30

Ultimate

ВАЖНО

ИГРА 18+

pack

RePack

MK11
pack

Забери бонус

RePack

jed

!!Акция!!

Alien_Rage

RePack

fifa19

RePack

Assassins Creed: Odyssey

RePack

NEED FOR SPEED™ PAYBACK

4 сезон

9 сезон

Бесстыжие 9 сезон

Все сериалы

все сериалы на PB.wtf

RePack

FAR CRY 5
  

Шкатулка проклятия / The Possession (Уле Борнедаль / Ole Bornedal) [2012, США, Канада, ужасы, триллер, BD-Remux] DUB + Original Eng + Sub (Rus, Eng) pb.wtf

Шкатулка проклятия через торрент pb.wtf

Размер: 24.19 GB | Добавлен: 7 лет 10 мес. назад | Торрент скачан:100 раз
Скачать  

17-01-2013 11:40 Шкатулка проклятия Скачать торрент  



Год выпуска: 2012
Страна: США, Канада
Жанр: ужасы, триллер
Продолжительность: 01:32:13
Перевод: Профессиональный (полное дублирование)
СубтитрыРуссие (полные), английские (полные, SDH)
Оригинальная аудиодорожка: Английская

Режиссер: Уле Борнедаль




Джеффри Дин Морган, Наташа Калис, Кира Седжвик, Мэдисон Девенпорт, Роб ЛаБелль, Матисьяху, Джей Бразо, Грант Шоу, Нана Гбивонио, Анна Хэган


Девочка покупает винтажную шкатулку на ярмарке в одном из соседних дворов. Поначалу родители не видят повода для беспокойства, когда их младшая дочь становится одержима новой игрушкой. Со временем поведение девочки становится все более странным, а реакции неожиданными, родители пытаются раскрыть секрет шкатулки. Они не подозревают, что в деревянной коробке живет злой дух, который творит страшные вещи со своими хозяевами - их было много и владели они этим «сокровищем» очень недолго. Отец девочки объединяется с бывшей женой в попытках найти способ снять проклятие с их ребёнка.

Качество: BD-Remux
Формат: MKV
Видео кодек: MPEG-4 AVC Video
Аудио кодек: DTS Audio / Dolby Digital Audio / DTS-HD Master Audio
Видео: MPEG-4 AVC Video / 32818 kbps / 1920x1080p / 23,976 fps / 16:9 / High Profile 4.1
Аудио 1: Русский / DTS Audio / 768 kbps / 5.1 / 48 kHz / 24-bit
Аудио 2: English / DTS-HD Master Audio / 3455 kbps / 5.1 / 48 kHz / 24-bit (DTS Core: 5.1 / 48 kHz / 1509 kbps / 24-bit) (Оригинал)
Аудио 3: English / Dolby Digital Audio / 256 kbps / 2.0 / 48 kHz / 16-bit (Комментарии)
Аудио 4: English / Dolby Digital Audio / 256 kbps / 2.0 / 48 kHz / 16-bit (Комментарии)
Общее
Уникальный идентификатор : 223437566738815646531289872911197173440 (0xA8188292870387569DF360D8591676C0)
Полное имя : D:Шкатулка проклятия (Одержимость) BDRemux 1080p GORENOISE.mkv
Формат : Matroska
Версия формата : Version 4 / Version 2
Размер файла : 24,2 Гбайт
Продолжительность : 1 ч. 32 м.
Режим общего битрейта : Переменный
Общий поток : 37,5 Мбит/сек
Название фильма : GORENOISE
Дата кодирования : UTC 2010-02-22 21:41:31
Программа кодирования : mkvmerge v5.9.0 ('On The Loose') built on Dec 9 2012 15:37:01
Библиотека кодирования : libebml v1.3.0 + libmatroska v1.4.0

Видео
Идентификатор : 1
Формат : AVC
Формат/Информация : Advanced Video Codec
Профиль формата : High@L4.1
Параметр CABAC формата : Да
Параметр ReFrames формата : 2 кадра
Идентификатор кодека : V_MPEG4/ISO/AVC
Продолжительность : 1 ч. 32 м.
Вид битрейта : Переменный
Ширина : 1920 пикселей
Высота : 1080 пикселей
Соотношение сторон : 16:9
Режим частоты кадров : Постоянный
Частота кадров : 23,976 кадра/сек
Цветовое пространство : YUV
Субдискретизация насыщенности : 4:2:0
Битовая глубина : 8 бит
Тип развёртки : Прогрессивная
Заголовок : GORENOISE
Язык : English
Default : Да
Forced : Нет

Аудио #1
Идентификатор : 2
Формат : DTS
Формат/Информация : Digital Theater Systems
Режим : 16
Параметр Endianness формата : Big
Идентификатор кодека : A_DTS
Продолжительность : 1 ч. 32 м.
Вид битрейта : Постоянный
Битрейт : 755 Кбит/сек
Каналы : 6 каналов
Расположение каналов : Front: L C R, Side: L R, LFE
Частота : 48,0 КГц
Битовая глубина : 24 бит
Метод сжатия : С потерями
Размер потока : 498 Мбайт (2%)
Заголовок : Профессиональный (дублированный) R5
Язык : Russian
Default : Да
Forced : Нет

Аудио #2
Идентификатор : 3
Формат : DTS
Формат/Информация : Digital Theater Systems
Профиль формата : MA / Core
Режим : 16
Параметр Endianness формата : Big
Идентификатор кодека : A_DTS
Продолжительность : 1 ч. 32 м.
Вид битрейта : Переменный
Битрейт : Неизвестно / 1509 Кбит/сек
Каналы : 6 каналов
Расположение каналов : Front: L C R, Side: L R, LFE
Частота : 48,0 КГц
Битовая глубина : 24 бит
Метод сжатия : Без потерь / Lossy
Заголовок : Оригинал
Язык : English
Default : Нет
Forced : Нет

Аудио #3
Идентификатор : 4
Формат : AC-3
Формат/Информация : Audio Coding 3
Расширение режима : CM (complete main)
Параметр Endianness формата : Big
Идентификатор кодека : A_AC3
Продолжительность : 1 ч. 32 м.
Вид битрейта : Постоянный
Битрейт : 256 Кбит/сек
Каналы : 2 канала
Расположение каналов : Front: L R
Частота : 48,0 КГц
Битовая глубина : 16 бит
Метод сжатия : С потерями
Размер потока : 169 Мбайт (1%)
Заголовок : Комментарии
Язык : English
Default : Нет
Forced : Нет

Аудио #4
Идентификатор : 5
Формат : AC-3
Формат/Информация : Audio Coding 3
Расширение режима : CM (complete main)
Параметр Endianness формата : Big
Идентификатор кодека : A_AC3
Продолжительность : 1 ч. 32 м.
Вид битрейта : Постоянный
Битрейт : 256 Кбит/сек
Каналы : 2 канала
Расположение каналов : Front: L R
Частота : 48,0 КГц
Битовая глубина : 16 бит
Метод сжатия : С потерями
Размер потока : 169 Мбайт (1%)
Заголовок : Комментарии
Язык : English
Default : Нет
Forced : Нет

Текст #1
Идентификатор : 6
Формат : UTF-8
Идентификатор кодека : S_TEXT/UTF8
Идентификатор кодека/Информация : UTF-8 Plain Text
Заголовок : Полные
Язык : Russian
Default : Нет
Forced : Нет

Текст #2
Идентификатор : 7
Формат : UTF-8
Идентификатор кодека : S_TEXT/UTF8
Идентификатор кодека/Информация : UTF-8 Plain Text
Заголовок : Полные
Язык : English
Default : Нет
Forced : Нет

Текст #3
Идентификатор : 8
Формат : UTF-8
Идентификатор кодека : S_TEXT/UTF8
Идентификатор кодека/Информация : UTF-8 Plain Text
Заголовок : SDH
Язык : English
Default : Нет
Forced : Нет

Меню
00:00:00.000 : en:00:00:00.000
00:03:36.508 : en:00:03:36.508
00:08:00.313 : en:00:08:00.313
00:11:01.744 : en:00:11:01.744
00:13:24.721 : en:00:13:24.721
00:16:57.016 : en:00:16:57.016
00:20:51.250 : en:00:20:51.250
00:25:05.129 : en:00:25:05.129
00:30:09.975 : en:00:30:09.975
00:35:03.560 : en:00:35:03.560
00:39:06.177 : en:00:39:06.177
00:43:04.540 : en:00:43:04.540
00:46:16.816 : en:00:46:16.816
00:50:02.458 : en:00:50:02.458
00:52:48.707 : en:00:52:48.707
00:55:26.573 : en:00:55:26.573
00:57:09.926 : en:00:57:09.926
01:01:59.341 : en:01:01:59.341
01:05:47.569 : en:01:05:47.569
01:08:22.098 : en:01:08:22.098
01:12:05.404 : en:01:12:05.404
01:17:08.749 : en:01:17:08.749
01:24:01.912 : en:01:24:01.912
01:26:42.239 : en:01:26:42.239

Релиз предоставлен:by GORENOISE
pb.wtf



Скачать Шкатулка проклятия через торрент http://i54.fastpic.ru/big/2013/0117/43/93778f34a797812546c2837d88487d43.png Скачать фильм Шкатулка проклятия через торрент бесплантно в хорошем качестве Год выпуска: 2012Страна: США, КанадаЖанр: ужасы, триллерПродолжительность: 01:32:13Перевод: Профессиональный (полное ... 10 10 2
Info! Золотая раздача, скачанное не засчитывается.
Торрент: Зарегистрирован [2013-01-17 11:40] · скачан: 100 раз
Статус: √ проверено
Размер: 24.19 GB
Как cкачать? Как скачать Шкатулка проклятия через торрент | qTorrent

% Раздел Тема Автор DL S | L
Фильмы [HD 720p, 1080p] (Хороший звук DUB, MVO) [ 7.82 GB ] Шкатулка проклятия / The Possession [2012 BDRip-HEVC 1080p ] DUB [] bober100 Скачать
1 | 0
Фильмы [HD 720p, 1080p] (Хороший звук DUB, MVO) [ 9.25 GB ] Шкатулка проклятия / The Possession [2012 BDRip 1080p] diletant Скачать
1 | 0
Фильмы 2012 [ 1.46 GB ] Шкатулка проклятия / The Possession [2012 HDRip DUB лицензия] Pavlin Скачать
1 | 0
Фильмы (DVD фильмы) [ 6.79 GB ] Шкатулка проклятия / The Possession [2012 DVD9] R5 voovaz Скачать
1 | 0
Фильмы [HD 720p, 1080p] (Хороший звук DUB, MVO) [ 9.42 GB ] Шкатулка проклятия / The Possession [2012 BDRip 1080p] Rus Transfer diletant Скачать
1 | 0
Фильмы [HD 720p, 1080p] (Хороший звук DUB, MVO) [ 5.7 GB ] Шкатулка проклятия / The Possession [2012 BDRip 720p] Rus Transfer diletant Скачать
1 | 0
Фильмы 2012 [ 1.46 GB ] Шкатулка проклятия / The Possession [2012 BDRip / лицензия] Mr. Freeman Скачать
2 | 0

28-11-2019 20:33  

Отключить всю рекламу на сайте

    Дорогой пользователь! Огромная просьба, поблагодарите релизера, оцените раздачу и оставьте свои комментарий, если Вы скачали Шкатулка проклятия через торрент бесплатно! Внесите свою лепту в развитие PiratBit!
    Комментировать посты могут только пользователи прошедшие не сложную регистрацию
    Показать сообщения:    

    Шкатулка проклятия через торрент
    Скачать бесплатно Шкатулка проклятия
    Шкатулка проклятия скачать торрент
    Шкатулка проклятия смотреть онлайн
    Cкачать фильм Шкатулка проклятия бесплатно
    Шкатулка проклятия скачать торрент в хорошем качестве
    Шкатулка проклятия смотреть онлайн бесплатно в хорошем качестве


    Вы не можете начинать темы
    Вы не можете отвечать на сообщения
    Вы не можете редактировать свои сообщения
    Вы не можете удалять свои сообщения
    Вы не можете голосовать в опросах
    Вы не можете прикреплять файлы к сообщениям
    Вы можете скачивать файлы