Доктор Стрэндж

Лицензия

Добыча

Дубляж

Дом дракона

1 сезон

Тор

Дубляж

В эфире

Дубляж

Там, где раки поют

MVO

Властелин колец

1 сезон

GLOBAL

pack

Рекомендуем

30

Пиратка

ВАЖНО

ВАЖНО

Ghostwire

Пиратка

jed

RePack

nioh2

RePack

RDR2

RePack

NEED FOR SPEED™ PAYBACK

RePack

скачать торрент

Кинопоиск HD

Острые козырьки 6 сезон

6 сезон

FAR CRY 6

RePack

скачать торрент

Лицензия

скачать торрент

MVO

1

1 сезон

скачать торрент

1 сезон

скачать торрент

Лицензия

  

Цинциннати Кид / The Cincinnati Kid (Норман Джуисон) [1965 г., драма, DVDRip, MVO]

Цинциннати Кид через торрент pb.wtf

Размер: 2.04 GB | Добавлен: 9 лет назад | Торрент скачан:8 раз
Смотреть онлайн | Скачать   

18-01-2013 15:46 Цинциннати Кид Скачать торрент  

Цинциннати Кид / The Cincinnati Kid

Год выпуска: 1965
Страна: США
Жанр: драма
Продолжительность: 01:45:03
Перевод: Профессиональный многоголосый
Субтитры: Отсутствуют

Режиссер: Норман Джуисон
Продюссер: Джон Калли, Мартин Рансохофф
Сценарий: Ринг Ларднер мл., Терри Саузерн, Ричард Джессуп

Мировой рейтинг IMDB 7.20 (7 898)


В ролях: Стив МакКуин, Эдвард Дж. Робинсон, Энн-Маргрет, Карл Молден, Тьюзди Уэлд, Джоан Блонделл, Рип Торн, Джек Уэстон, Кэб Кэллоуэй, Джефф Кори

Описание: Цинциннати Кид — лучший игрок в Новом Орлеане в стад покер. Однажды от карточного дилера Шутера он узнаёт, что в город приехал знаменитый Лэнси Говард — лучший карточный игрок. Кид решает сразиться с ним, чтобы победить, ему удаётся договориться об игре, делаются ставки, и игра начинается...

Качество: DVDRip
Формат: AVI
Видео кодек: XviD
Аудио кодек: AC3
Видео: 720x400 (1.80:1), 23.976 fps, XviD build 50 ~2400 kbps avg, 0.35 bit/pixel
Аудио#1: 48 kHz, AC3 Dolby Digital, 2/0 (L,R) ch, ~384 kbps
скриншот   скриншот   скриншот   скриншот   скриншот   скриншот  

Общее
Полное имя : F:ЗакачкиCincinnati.Kid.1965.DVDRip.avi
Формат : AVI
Формат/Информация : Audio Video Interleave
Профиль формата : OpenDML
Размер файла : 2,04 Гбайт
Продолжительность : 1 ч. 45 м.
Общий поток : 2783 Кбит/сек
Программа кодирования : VirtualDubMod 1.5.10.3 | www.virtualdub-fr.org || (build 2550/release)
Библиотека кодирования : VirtualDubMod build 2550/release

Видео
Идентификатор : 0
Формат : MPEG-4 Visual
Профиль формата : Advanced [email protected]
Параметр BVOP формата : 2
Параметр QPel формата : Нет
Параметр GMC формата : Без точки перехода
Параметр матрицы формата : Default (H.263)
Идентификатор кодека : XVID
Идентификатор кодека/Подсказка : XviD
Продолжительность : 1 ч. 45 м.
Битрейт : 2396 Кбит/сек
Ширина : 720 пикселей
Высота : 400 пикселей
Соотношение сторон : 16:9
Частота кадров : 23,976 кадра/сек
Цветовое пространство : YUV
Субдискретизация насыщенности : 4:2:0
Битовая глубина : 8 бит
Тип развёртки : Прогрессивная
Метод сжатия : С потерями
Бит/(Пиксели*Кадры) : 0.347
Размер потока : 1,76 Гбайт (86%)
Библиотека кодирования : XviD 1.2.1 (UTC 2008-12-04)

Аудио
Идентификатор : 1
Формат : AC-3
Формат/Информация : Audio Coding 3
Расширение режима : CM (complete main)
Идентификатор кодека : 2000
Продолжительность : 1 ч. 42 м.
Вид битрейта : Постоянный
Битрейт : 384 Кбит/сек
Каналы : 2 канала
Расположение каналов : Front: L R
Частота : 48,0 КГц
Битовая глубина : 16 бит
Метод сжатия : С потерями
Размер потока : 282 Мбайт (13%)
Выравнивание : Разделение по промежуткам
Продолжительность промежутка : 43 мс. (1,02 видеокадр)
Время предзагрузки промежутка : 500 мс.


Цинциннати Кид скачать торрент





Скачать Цинциннати Кид через торрент http://i53.fastpic.ru/big/2013/0118/97/0a951384d99a8fb5b736378635691a97.jpg Скачать, смотреть онлайн Цинциннати Кид бесплантно в хорошем качестве Описание: Цинциннати Кид — лучший игрок в Новом Орлеане в стад покер. Однажды от карточного дилера Шутера он узнаёт, что в город приехал ... 5 10 1
Info! Золотая раздача, скачанное не засчитывается.
Торрент: Зарегистрирован [2013-01-18 15:46] · скачан: 8 раз
Статус: √ проверено
Размер: 2.04 GB
Как cкачать? Как скачать Цинциннати Кид через торрент | UTorrent

% Раздел Тема Автор DL S | L
Фильмы [HD 720p, 1080p] (Хороший звук DUB, MVO) [ 4.84 GB ] Цинциннати Кид / The Cincinnati Kid | MVO + AVO - KORSAR | 720p kisa1980 Скачать
1 | 0
Классика зарубежного кино [ 1.5 GB ] Цинциннати Кид / The Cincinnati Kid | MVO | DVDRip killermax2013 Скачать
1 | 0

28-11-2019 20:33  


Отключить вcю реклaмy на сайте, в т.ч. и в плеере онлайн просмотра!

    Дорогой пользователь! Огромная просьба, поблагодарите релизера, оцените раздачу и оставьте свои комментарий, если Вы скачали Цинциннати Кид через торрент бесплатно!!
    Комментировать посты могут только пользователи прошедшие не сложную регистрацию
    Показать сообщения:    


    Цинциннати Кид через торрент
    Скачать бесплатно Цинциннати Кид
    Цинциннати Кид скачать торрент
    Цинциннати Кид смотреть онлайн
    Cкачать фильм Цинциннати Кид бесплатно
    Цинциннати Кид скачать торрент в хорошем качестве
    Цинциннати Кид смотреть онлайн бесплатно в хорошем качестве
    Вы не можете начинать темы
    Вы не можете отвечать на сообщения
    Вы не можете редактировать свои сообщения
    Вы не можете удалять свои сообщения
    Вы не можете голосовать в опросах
    Вы не можете прикреплять файлы к сообщениям
    Вы можете скачивать файлы
    Цинциннати Кид / The Cincinnati Kid [1965 г., драма, DVDRip, MVO] смотреть онлайн, скачать торрент picoco.icu