Ссылка на приватное зеркало всего за 1$. Внимание количество ограничено!!!


iTunes

1+1

iTunes

мы

WEB-DL

1

iTunes

Чернобыль

iTunes

Ральф против интернета

Лицензия

ПШазам

Лицензия

Оно 2

WEB-DL

30
pack

Вам бонус

ВАЖНО

!!Акция!!

Alien_RageХит недели

RePack

Resident Evil 21

ИГРА 18+

pack

RePack

jed

!!Акция!!

Alien_Rage

RePack

fifa19

RePack

Assassins Creed: Odyssey

RePack

NEED FOR SPEED™ PAYBACK

4 сезон

9 сезон

Бесстыжие 9 сезон

Все сериалы

все сериалы на PB.wtf

RePack

FAR CRY 5
Ребята, катастрофически не хватает 1900р. для оплаты серверов за Октябрь (всвязи с блокировками трафик упал в 3 раза), 1-2р., выручайте.
  

Брат якудзы / Brother (Такеши Китано / Takeshi Kitano) [2000 г., триллер, драма, криминал, HDRip-AVC] DVO + AVO + ENG + Sub pb.wtf

Брат якудзы через торрент pb.wtf

Раздают: 1 [ 0 KB/s ]
Размер: 2.91 GB | Добавлен: 6 лет 10 мес. назад | Торрент скачан:227 раз
Скачать  

18-01-2013 16:17 Брат якудзы Скачать торрент  

Брат якудзы / Brother«А ты Японец?..»Год выпуска: 2000
Страна: США, Великобритания, Япония
Жанр: триллер, драма, криминал
Продолжительность: 01:53:20
Перевод: Профессиональный (двухголосый) + Авторский (Дмитрий «Гоблин» Пучков) + Оригинал
Cубтитры: русские, английские

Режиссер: Такеши Китано / Takeshi Kitano

В ролях: Такеши Китано, Омар Эппс, Куроудо Маки, Масая Като, Сусуму Тэрадзима, Ройял Уоткинс, Ломбардо Бойяр, Рен Осуги, Рё Исибаси, Джеймс Шигета, Татьяна Али, Макото Отакэ

Описание: После разгрома родного мафиозного клана боевик Аники Ямамото по прозвищу Старший Брат бежит из Японии в Америку. Здесь его встречает чужой, но не менее жестокий мир безжалостной борьбы за Влacть в преступной среде, в которой Ямамото решительно отвоевывает себе место, следуя древнему кодексу «якудзы».
Полагаясь только на свои силы и дорожа верными друзьями, он в одиночку ведет войну с врагами, зная, что в самом конце кровавого пути его ждет триумф или смерть...



Качество: HDRip-AVC
Формат: MKV
Видео кодек: H.26x
Аудио кодек: AC3
Видео: 1024х552 (1,855:1), 24 fps, H264 ~ 2333 kbps avg, 0.172 bit/pixel
Аудио #1: 48 kHz, AC3, 6 ch, 448.00 kbps DVO
Аудио #2: 48 kHz, AC3, 6 ch, 448.00 kbps AVO
Аудио #3: 48 kHz, AC3, 6 ch, 448.00 kbps ENG
Общее
Полное имя : Brat.jakudzy.2000.HDRip-AVC_[Youtracker]_by_AVP Studio.mkv
Формат : Matroska
Версия формата : Version 2
Размер файла : 2,91 Гбайт
Продолжительность : 1 ч. 53 м.
Общий поток : 3677 Кбит/сек
Название фильма : Brat.jakudzy.2000.HDRip-AVC_[Youtracker]_by_AVP Studio
Дата кодирования : UTC 2012-12-30 12:08:32
Программа кодирования : mkvmerge v5.8.0 ('No Sleep / Pillow') built on Sep 2 2012 15:37:04
Библиотека кодирования : libebml v1.2.3 + libmatroska v1.3.0

Видео
Идентификатор : 1
Формат : AVC
Формат/Информация : Advanced Video Codec
Профиль формата : High@L4.1
Параметр CABAC формата : Да
Параметр ReFrames формата : 11 кадров
Идентификатор кодека : V_MPEG4/ISO/AVC
Продолжительность : 1 ч. 53 м.
Битрейт : 2333 Кбит/сек
Ширина : 1024 пикселя
Высота : 552 пикселя
Соотношение сторон : 1,855
Частота кадров : 24,000 кадра/сек
Цветовое пространство : YUV
Субдискретизация насыщенности : 4:2:0
Битовая глубина : 8 бит
Тип развёртки : Прогрессивная
Бит/(Пиксели*Кадры) : 0.172
Размер потока : 1,79 Гбайт (61%)
Заголовок : Источник BDRip 720p
Библиотека кодирования : x264 core 119 r2106 07efeb4
Настройки программы : cabac=1 / ref=11 / deblock=1:-2:-1 / analyse=0x3:0x113 / me=umh / subme=9 / psy=1 / psy_rd=1.00:0.10 / mixed_ref=1 / me_range=32 / chroma_me=1 / trellis=1 / 8x8dct=1 / cqm=0 / deadzone=21,11 / fast_pskip=0 / chroma_qp_offset=-3 / threads=3 / sliced_threads=0 / nr=0 / decimate=1 / interlaced=0 / bluray_compat=0 / constrained_intra=0 / bframes=10 / b_pyramid=2 / b_adapt=1 / b_bias=0 / direct=3 / weightb=1 / open_gop=0 / weightp=2 / keyint=240 / keyint_min=23 / scenecut=40 / intra_refresh=0 / rc_lookahead=60 / rc=2pass / mbtree=1 / bitrate=2333 / ratetol=1.0 / qcomp=0.60 / qpmin=0 / qpmax=69 / qpstep=4 / cplxblur=20.0 / qblur=0.5 / ip_ratio=1.40 / aq=1:1.00
Язык : English
Default : Да
Forced : Нет

Аудио #1
Идентификатор : 2
Формат : AC-3
Формат/Информация : Audio Coding 3
Расширение режима : CM (complete main)
Идентификатор кодека : A_AC3
Продолжительность : 1 ч. 53 м.
Вид битрейта : Постоянный
Битрейт : 448 Кбит/сек
Каналы : 6 каналов
Расположение каналов : Front: L C R, Side: L R, LFE
Частота : 48,0 КГц
Битовая глубина : 16 бит
Метод сжатия : С потерями
Размер потока : 363 Мбайт (12%)
Заголовок : Источник BDRip 720p
Язык : Russian
Default : Да
Forced : Нет

Аудио #2
Идентификатор : 3
Формат : AC-3
Формат/Информация : Audio Coding 3
Расширение режима : CM (complete main)
Идентификатор кодека : A_AC3
Продолжительность : 1 ч. 53 м.
Вид битрейта : Постоянный
Битрейт : 448 Кбит/сек
Каналы : 6 каналов
Расположение каналов : Front: L C R, Side: L R, LFE
Частота : 48,0 КГц
Битовая глубина : 16 бит
Метод сжатия : С потерями
Размер потока : 363 Мбайт (12%)
Заголовок : Источник BDRip 720p
Язык : Russian
Default : Нет
Forced : Нет

Аудио #3
Идентификатор : 4
Формат : AC-3
Формат/Информация : Audio Coding 3
Расширение режима : CM (complete main)
Идентификатор кодека : A_AC3
Продолжительность : 1 ч. 53 м.
Вид битрейта : Постоянный
Битрейт : 448 Кбит/сек
Каналы : 6 каналов
Расположение каналов : Front: L C R, Side: L R, LFE
Частота : 48,0 КГц
Битовая глубина : 16 бит
Метод сжатия : С потерями
Размер потока : 363 Мбайт (12%)
Заголовок : Источник BDRip 720p
Язык : English
Default : Нет
Forced : Нет

Текст
Идентификатор : 5
Формат : UTF-8
Идентификатор кодека : S_TEXT/UTF8
Идентификатор кодека/Информация : UTF-8 Plain Text
Заголовок : Источник BDRip 720p
Язык : Russian
Default : Нет
Forced : Нет

Меню
00:00:00.000 : :00:00:00.000
00:04:46.000 : :00:04:46.000
00:09:48.542 : :00:09:48.542
00:15:12.875 : :00:15:12.875
00:20:55.625 : :00:20:55.625
00:27:58.042 : :00:27:58.042
00:34:25.583 : :00:34:25.583
00:43:21.917 : :00:43:21.917
00:51:26.125 : :00:51:26.125
00:58:47.292 : :00:58:47.292
01:07:25.000 : :01:07:25.000
01:14:04.625 : :01:14:04.625
01:22:49.708 : :01:22:49.708
01:32:15.083 : :01:32:15.083
01:41:43.125 : :01:41:43.125
01:48:46.500 : :01:48:46.500
pb.wtf



Скачать Брат якудзы через торрент http://s4.hostingkartinok.com/uploads/images/2012/12/1d096815faf3ec34596a4fb38c49c293.png Скачать фильм Брат якудзы через торрент бесплантно в хорошем качестве Описание: После разгрома родного мафиозного клана боевик Аники Ямамото по прозвищу Старший Брат бежит из Японии в Америку. Здесь его ... 10 10 2
Info! Золотая раздача, скачанное не засчитывается.
Торрент: Зарегистрирован [2013-01-18 16:17] · скачан: 227 раз
Статус: √ проверено
Размер: 2.91 GB
Как cкачать? Как скачать Брат якудзы через торрент | qTorrent

28-11-2019 20:33  

Отключить всю рекламу на сайте

18-01-2013 17:08 Брат якудзы Скачать торрент  

как фильм?Отпишитесь стоит ли смотреть*pb.wtf



18-01-2013 17:21 Брат якудзы Скачать торрент  

стоит. Для любителей жёсткого криминала.pb.wtf



    Дорогой пользователь! Огромная просьба, поблагодарите релизера, оцените раздачу и оставьте свои комментарий, если Вы скачали Брат якудзы через торрент бесплатно! Внесите свою лепту в развитие PiratBit!
    Комментировать посты могут только пользователи прошедшие не сложную регистрацию
    Показать сообщения:    

    Брат якудзы через торрент
    Скачать бесплатно Брат якудзы
    Брат якудзы скачать торрент
    Брат якудзы смотреть онлайн
    Cкачать фильм Брат якудзы бесплатно
    Брат якудзы скачать торрент в хорошем качестве
    Брат якудзы смотреть онлайн бесплатно в хорошем качестве


    Вы не можете начинать темы
    Вы не можете отвечать на сообщения
    Вы не можете редактировать свои сообщения
    Вы не можете удалять свои сообщения
    Вы не можете голосовать в опросах
    Вы не можете прикреплять файлы к сообщениям
    Вы можете скачивать файлы