1 сезон

1 сезон

iTunes

1

КиноПоиск HD

Кинопоиск HD

iTunes

13

1 сезон

RePack

30

Новинка

ВАЖНО

ИГРА 18+

pack

RePack

MK11
pack

Легкие деньги

RePack

jed

RePack

fifa19

RePack

RDR2

RePack

NEED FOR SPEED™ PAYBACK

4 сезон

9 сезон

Бесстыжие 9 сезон

Все сериалы

все сериалы на PB.wtf

RePack

FAR CRY 5
  
Magnet ссылка

Неуловимый / Anthony Zimmer (Жером Салль / Jerome Salle) [2005 г., Триллер, драма, мелодрама, криминал, BDRip-AVC] DUB pb.wtf

Неуловимый через торрент pb.wtf

Размер: 2.19 GB | Добавлен: 8 лет 2 мес. назад | Торрент скачан:109 раз
Скачать  

18-01-2013 16:57 Неуловимый Скачать торрент  

Неуловимый / Anthony Zimmer

Год выпуска: 2005
Страна: Франция, Canal+
Жанр: Триллер, драма, мелодрама, криминал
Продолжительность: 01:28:50
Перевод: Профессиональный (полное дублирование)
Субтитры: Английские, русские

Режиссер: Жером Салль / Jerome Salle

В ролях: Иван Атталь, Софи Марсо, Сами Фрей, Даниэль Ольбрыхский, Жиль Лелуш, Самир Гесми, Арно Дюлери

Описание: Интерпол преследует неуловимого мошенника Энтони Циммера, специализирующегося на отмывании денег для русской мафии. Поймать Циммера стало трудней после того, как он сделал пластическую операцию и полностью изменил свою внешность. Теперь единственная ниточка к мошеннику — обворожительная красотка Кьяра, любовница Циммера. Но Кьяра, понимая, что ее попытаются использовать, заводит интрижку с простоватым парнем Франсуа. Некоторое сходство Франсуа и Циммера является вполне достаточным основанием и для спецслужб, и для мафии, чтобы попытаться убить Франсуа…



Качество: BDRip-AVC
Формат: MKV
Видео кодек: H.26x
Аудио кодек: DTS
Видео: AVC, 1024x432 (2.35:1), 23.976 fps, 2 767 Kbps (0.261 bit/pixel)
Аудио: DTS, 48.0 KHz, 6 ch, 755 Kbps, CBR
Complete name : D:VideoNeulovimiy.2005.x264.BDRip(AVC).ed_rez.mkv
Format : Matroska
Format version : Version 2
File size : 2.19 GiB
Duration : 1h 28mn
Overall bit rate : 3 524 Kbps
Encoded date : UTC 2011-02-19 08:36:36
Writing application : mkvmerge v4.4.0 ('Die Wiederkehr') сборка от Oct 31 2010 21:52:48
Writing library : libebml v1.0.0 + libmatroska v1.0.0

Video
ID : 1
Format : AVC
Format/Info : Advanced Video Codec
Format profile : High@L4.1
Format settings, CABAC : Yes
Format settings, ReFrames : 8 frames
Codec ID : V_MPEG4/ISO/AVC
Duration : 1h 28mn
Bit rate : 2 767 Kbps
Width : 1 024 pixels
Height : 432 pixels
Display aspect ratio : 2.40:1
Frame rate : 23.976 fps
Color space : YUV
Chroma subsampling : 4:2:0
Bit depth : 8 bits
Scan type : Progressive
Bits/(Pixel*Frame) : 0.261
Stream size : 1.67 GiB (77%)
Writing library : x264 core 112 r1867 22bfd31
Encoding settings : cabac=1 / ref=8 / deblock=1:-3:-3 / analyse=0x3:0x133 / me=umh / subme=9 / psy=1 / psy_rd=1.00:0.20 / mixed_ref=1 / me_range=32 / chroma_me=1 / trellis=2 / 8x8dct=1 / cqm=0 / deadzone=21,11 / fast_pskip=1 / chroma_qp_offset=-3 / threads=3 / sliced_threads=0 / nr=0 / decimate=1 / interlaced=0 / constrained_intra=0 / bframes=16 / b_pyramid=2 / b_adapt=2 / b_bias=2 / direct=3 / weightb=1 / open_gop=0 / weightp=2 / keyint=250 / keyint_min=23 / scenecut=40 / intra_refresh=0 / rc_lookahead=60 / rc=2pass / mbtree=1 / bitrate=2767 / ratetol=0.1 / qcomp=0.80 / qpmin=0 / qpmax=51 / qpstep=4 / cplxblur=20.0 / qblur=0.5 / ip_ratio=1.40 / aq=1:1.00
Language : French
Default : Yes
Forced : No

Audio
ID : 2
Format : DTS
Format/Info : Digital Theater Systems
Codec ID : A_DTS
Duration : 1h 28mn
Bit rate mode : Constant
Bit rate : 755 Kbps
Channel(s) : 6 channels
Channel positions : Front: L C R, Side: L R, LFE
Sampling rate : 48.0 KHz
Bit depth : 24 bits
Compression mode : Lossy
Stream size : 479 MiB (21%)
Title : DUB
Language : Russian
Default : Yes
Forced : No

Text #1
ID : 3
Format : UTF-8
Codec ID : S_TEXT/UTF8
Codec ID/Info : UTF-8 Plain Text
Language : Russian
Default : Yes
Forced : No

Text #2
ID : 4
Format : UTF-8
Codec ID : S_TEXT/UTF8
Codec ID/Info : UTF-8 Plain Text
Language : English
Default : No
Forced : No
pb.wtf



Скачать Неуловимый через торрент http://s51.radikal.ru/i132/1212/c7/ddc98930d168.jpg Скачать фильм Неуловимый через торрент бесплантно в хорошем качестве Описание: Интерпол преследует неуловимого мошенника Энтони Циммера, специализирующегося на отмывании денег для русской мафии. Поймать ... 10 10 1
Info! Золотая раздача, скачанное не засчитывается.
Торрент: Зарегистрирован [2013-01-18 16:57] · скачан: 109 раз
Статус: √ проверено
Размер: 2.19 GB
Как cкачать? Как скачать Неуловимый через торрент | UTorrent

% Раздел Тема Автор DL S | L
Фильмы [HD 720p, 1080p] (Хороший звук DUB, MVO) [ 5.29 GB ] Неуловимый / Anthony Zimmer [2005 BDRip 720p от _denis_100 / NNNB] DUB AVO _denis_100 Скачать
1 | 0
Фильмы 2001-2005 [ 1.37 GB ] Неуловимый / Anthony Zimmer [2005 HDRip DUB лицензия] lev1244v Скачать
1 | 0

28-11-2019 20:33  

Отключить всю рекламу на сайте

    Дорогой пользователь! Огромная просьба, поблагодарите релизера, оцените раздачу и оставьте свои комментарий, если Вы скачали Неуловимый через торрент бесплатно! Внесите свою лепту в развитие PiratBit!
    Комментировать посты могут только пользователи прошедшие не сложную регистрацию
    Показать сообщения:    

    Неуловимый через торрент
    Скачать бесплатно Неуловимый
    Неуловимый скачать торрент
    Неуловимый смотреть онлайн
    Cкачать фильм Неуловимый бесплатно
    Неуловимый скачать торрент в хорошем качестве
    Неуловимый смотреть онлайн бесплатно в хорошем качестве


    Вы не можете начинать темы
    Вы не можете отвечать на сообщения
    Вы не можете редактировать свои сообщения
    Вы не можете удалять свои сообщения
    Вы не можете голосовать в опросах
    Вы не можете прикреплять файлы к сообщениям
    Вы можете скачивать файлы