1 сезон

1 сезон

iTunes

1

КиноПоиск HD

Кинопоиск HD

iTunes

13

1 сезон

RePack

30

Новинка

ВАЖНО

ИГРА 18+

pack

RePack

MK11
pack

Легкие деньги

RePack

jed

RePack

fifa19

RePack

RDR2

RePack

NEED FOR SPEED™ PAYBACK

4 сезон

9 сезон

Бесстыжие 9 сезон

Все сериалы

все сериалы на PB.wtf

RePack

FAR CRY 5
  
Magnet ссылка

Тренер Картер / Coach Carter (Томас Картер / Thomas Carter) [2005 г., драма, спорт, BDRip-AVC] MVO + Orig + sub pb.wtf

Тренер Картер через торрент pb.wtf

Раздают: 3 [ 0 KB/s ]
Размер: 3.71 GB | Добавлен: 8 лет 2 мес. назад | Торрент скачан:354 раза
Скачать  

18-01-2013 17:55 Тренер Картер Скачать торрент  

Тренер Картер / Coach Carter«Это началось на улицах. Это закончилось здесь.»Год выпуска: 2005
Страна: США
Жанр: драма, спорт
Продолжительность: 02:16:20
Перевод: Профессиональный (многоголосый, закадровый) + Оригинал
Cубтитры: русские, английские

Режиссер: Томас Картер / Thomas Carter

В ролях: Сэмюэл Л. Джексон, Роб Браун, Роберт Ричард, Рик Гонсалес, Нана Гбивонио, Энтвон Тэннер, Ченнинг Татум, Ашанти, Тексас Бэттл, Дениз Дауз

Описание: Фильм основан на реальной истории, происшедшей в 1999 году в Ричмонде, штат Калифорния. Тренер школьной команды по баскетболу Кен Картер принял в середине сезона беспрецедентное решение, запретив игрокам, не испытавшим еще ни одного поражения, выходить на площадку из-за низкой успеваемости в школе. В итоге команда пропустила две игры в чемпионате, а юным баскетболистам был закрыт доступ в спортзал до тех пор, пока они не стали хорошо учиться. Поступок Картера вызвал одновременно и одобрение, и резкую критику со стороны родителей игроков и школьного руководства. Среди членов команды был и сын тренера, поступивший впоследствии в престижное учебное заведение.

Топ250: 140

Качество: BDRip-AVC
Формат: MKV
Видео кодек: H.26x
Аудио кодек: AC3
Видео: x264; 1096x460 (2.35:1); 3000 kbps; 23.976 fps; 0.248 bpp
Аудио 1: AC3; 448 Kbps; 6ch; 48Hz Rus
Аудио 2: AC3; 448 Kbps; 6ch; 48Hz Eng
General
Unique ID : 201685456032320326779850221457447603491 (0x97BB34B6A62B755FA6044DCB4CA04D23)
Complete name : H:des-Coach.Carter.2005.REMUXFinal (1).mkv
Format : Matroska
File size : 3.71 GiB
Duration : 2h 16mn
Overall bit rate : 3 897 Kbps
Encoded date : UTC 2011-06-13 12:16:17
Writing application : mkvmerge v3.4.0 ('Rapunzel') сборка от May 15 2010 09:38:20
Writing library : libebml v0.8.0 + libmatroska v0.9.0

Video
ID : 1
Format : AVC
Format/Info : Advanced Video Codec
Format profile : High@L3.2
Format settings, CABAC : Yes
Format settings, ReFrames : 10 frames
Codec ID : V_MPEG4/ISO/AVC
Duration : 2h 16mn
Bit rate : 3 000 Kbps
Width : 1 096 pixels
Height : 460 pixels
Display aspect ratio : 2.35:1
Frame rate : 23.976 fps
Color space : YUV
Chroma subsampling : 4:2:0
Bit depth : 8 bits
Scan type : Progressive
Bits/(Pixel*Frame) : 0.248
Stream size : 2.78 GiB (75%)
Title : encoded by NcryptoR (rutracker.org)
Writing library : x264 core 115 r1995 c1e60b9
Encoding settings : cabac=1 / ref=10 / deblock=1:-3:-2 / analyse=0x3:0x133 / me=umh / subme=9 / psy=1 / psy_rd=1.15:0.12 / mixed_ref=1 / me_range=28 / chroma_me=1 / trellis=2 / 8x8dct=1 / cqm=0 / deadzone=21,11 / fast_pskip=0 / chroma_qp_offset=-3 / threads=6 / sliced_threads=0 / nr=0 / decimate=0 / interlaced=0 / bluray_compat=0 / constrained_intra=0 / bframes=12 / b_pyramid=2 / b_adapt=2 / b_bias=0 / direct=3 / weightb=1 / open_gop=0 / weightp=2 / keyint=250 / keyint_min=23 / scenecut=40 / intra_refresh=0 / rc=2pass / mbtree=0 / bitrate=3000 / ratetol=1.0 / qcomp=0.80 / qpmin=0 / qpmax=69 / qpstep=4 / cplxblur=20.0 / qblur=0.5 / ip_ratio=1.40 / pb_ratio=1.30 / aq=2:0.80
Language : English
Matrix coefficients : BT.709-5, BT.1361, IEC 61966-2-4 709, SMPTE RP177

Audio #1
ID : 2
Format : AC-3
Format/Info : Audio Coding 3
Mode extension : CM (complete main)
Codec ID : A_AC3
Duration : 2h 16mn
Bit rate mode : Constant
Bit rate : 448 Kbps
Channel(s) : 6 channels
Channel positions : Front: L C R, Side: L R, LFE
Sampling rate : 48.0 KHz
Bit depth : 16 bits
Compression mode : Lossy
Stream size : 437 MiB (11%)
Title : MVO
Language : Russian

Audio #2
ID : 3
Format : AC-3
Format/Info : Audio Coding 3
Mode extension : CM (complete main)
Codec ID : A_AC3
Duration : 2h 16mn
Bit rate mode : Constant
Bit rate : 448 Kbps
Channel(s) : 6 channels
Channel positions : Front: L C R, Side: L R, LFE
Sampling rate : 48.0 KHz
Bit depth : 16 bits
Compression mode : Lossy
Stream size : 437 MiB (11%)
Title : Original
Language : English

Text #1
ID : 4
Format : UTF-8
Codec ID : S_TEXT/UTF8
Codec ID/Info : UTF-8 Plain Text
Title : Rus (Full)
Language : Russian

Text #2
ID : 5
Format : UTF-8
Codec ID : S_TEXT/UTF8
Codec ID/Info : UTF-8 Plain Text
Title : Eng (Full)
Language : English

Menu
00:00:00.000 : en:00:00:00.000
00:05:00.000 : en:00:05:00.000
00:10:00.000 : en:00:10:00.000
00:15:00.000 : en:00:15:00.000
00:20:00.000 : en:00:20:00.000
00:25:00.000 : en:00:25:00.000
00:30:00.000 : en:00:30:00.000
00:35:00.000 : en:00:35:00.000
00:40:00.000 : en:00:40:00.000
00:45:00.000 : en:00:45:00.000
00:50:00.000 : en:00:50:00.000
00:55:00.000 : en:00:55:00.000
01:00:00.000 : en:01:00:00.000
01:05:00.000 : en:01:05:00.000
01:10:00.000 : en:01:10:00.000
01:15:00.000 : en:01:15:00.000
01:20:00.000 : en:01:20:00.000
01:25:00.000 : en:01:25:00.000
01:30:00.000 : en:01:30:00.000
01:35:00.000 : en:01:35:00.000
01:40:00.000 : en:01:40:00.000
01:45:00.000 : en:01:45:00.000
01:50:00.000 : en:01:50:00.000
01:55:00.000 : en:01:55:00.000
02:00:00.000 : en:02:00:00.000
02:05:00.000 : en:02:05:00.000
02:10:00.000 : en:02:10:00.000
02:15:00.000 : en:02:15:00.000
pb.wtf



Скачать Тренер Картер через торрент http://s52.radikal.ru/i136/1212/e1/4892295f7f2a.png Скачать фильм Тренер Картер через торрент бесплантно в хорошем качестве Описание: Фильм основан на реальной истории, происшедшей в 1999 году в Ричмонде, штат Калифорния. Тренер школьной команды по баскетболу Кен ... 9.8 10 10
Info! Золотая раздача, скачанное не засчитывается.
Торрент: Зарегистрирован [2013-01-18 17:55] · скачан: 354 раз
Статус: √ проверено
Размер: 3.71 GB
Как cкачать? Как скачать Тренер Картер через торрент | UTorrent

28-11-2019 20:33  

Отключить всю рекламу на сайте

18-01-2013 18:29 Тренер Картер Скачать торрент  

отличный фильм!!!
:good2: :good2: :good2: :good2:pb.wtf



18-01-2013 21:50 Тренер Картер Скачать торрент  

Фильм отличный. Спасибо!pb.wtf



19-01-2013 15:15 Тренер Картер Скачать торрент  

Хочу скачать и посмотреть)Скорости))pb.wtf



28-05-2013 16:51 Тренер Картер Скачать торрент  

Ребятки, подкинте скорости, посоветовали фильм, не терпится посмотреть)pb.wtf



    Дорогой пользователь! Огромная просьба, поблагодарите релизера, оцените раздачу и оставьте свои комментарий, если Вы скачали Тренер Картер через торрент бесплатно! Внесите свою лепту в развитие PiratBit!
    Комментировать посты могут только пользователи прошедшие не сложную регистрацию
    Показать сообщения:    

    Тренер Картер через торрент
    Скачать бесплатно Тренер Картер
    Тренер Картер скачать торрент
    Тренер Картер смотреть онлайн
    Cкачать фильм Тренер Картер бесплатно
    Тренер Картер скачать торрент в хорошем качестве
    Тренер Картер смотреть онлайн бесплатно в хорошем качестве


    Вы не можете начинать темы
    Вы не можете отвечать на сообщения
    Вы не можете редактировать свои сообщения
    Вы не можете удалять свои сообщения
    Вы не можете голосовать в опросах
    Вы не можете прикреплять файлы к сообщениям
    Вы можете скачивать файлы