Ссылка на приватное зеркало нашего сайта всего за 1$. Внимание количество ограничено!!!

2 сезон

iTunes

1 сезон

1

iTunes

iTunes

iTunes

1 сезон

RePack

30

ИГРА 18+

pack

ВАЖНО

!!Акция!!

Alien_RageХит недели

RePack

MK11
pack

Забери бонус

RePack

jed

!!Акция!!

Alien_Rage

RePack

fifa19

RePack

Assassins Creed: Odyssey

RePack

NEED FOR SPEED™ PAYBACK

4 сезон

9 сезон

Бесстыжие 9 сезон

Все сериалы

все сериалы на PB.wtf

RePack

FAR CRY 5
  

Тэд Джонс и Затерянный город 3D / Las aventuras de Tadeo Jones (Энрике Гато) [2012 г., мультфильм, приключения, семейный, HDRip, DUB, лицензия] pb.wtf

Тэд Джонс и Затерянный город 3D через торрент pb.wtf

Размер: 1.36 GB | Добавлен: 7 лет 9 мес. назад | Торрент скачан:3637 раз
Скачать  

19-01-2013 07:13 Тэд Джонс и Затерянный город 3D Скачать торрент  

Тэд Джонс и Затерянный город 3D / Las aventuras de Tadeo Jones

Год выпуска: 2012
Страна: Испания
Жанр: мультфильм, приключения, семейный
Продолжительность: 01:32:00
Перевод: Дубляж, Лицензия

Режиссер: Энрике Гато
Продюссер: Альваро Аугустин, Гислен Баруа, Хорди Гасуль
Сценарий: Вероника Фернандез, Хорди Гасуль, Нил Ландау

Мировой рейтинг IMDB 5.80 (528)


В ролях: Оскар Барберан, Меритксель Ане, Карлес Канут, Фиона Глэскотт, Адам Джеймс, Мишель Хеннер, Мигель Анхель Дженнер, Энрикета Линарес, Мак МакДональд, Брюс Маккиннон, Пётр Иващенко, Станислав Дужников, Федор Добронравов, Даниил Эльдаров, Марина Александрова

Описание: Тэд — обычный чикагский строитель, страстно мечтающий о невероятных открытиях и опасных приключениях. Однажды его по ошибке принимают за известного археолога и отправляют в Перу на поиски сокровищ инков. Радости Тэда не было предела, но, похоже, она оказалась преждевременной...

Качество: HDRip
Формат: AVI
Видео кодек: XviD
Аудио кодек: AC3
Видео: Xvid,1666кбрs,720x400(16:9) в 24 000 fps
Аудио#1: AC-3,448кбрs,48.0 KHz, 16 bits,6 каналов


Полное имя : D:торентыTed.djons.i.zaterjannyj.gorod.2012.D.HDRip.1400MB.avi
Формат : AVI
Формат/Информация : Audio Video Interleave
Размер файла : 1.36 GiB
Продолжительность : 1h 32mn
Общий поток : 2 123 Kbps
Программа кодирования : VirtualDubMod 1.5.10.2 (build 2542/release)
Библиотека кодирования : VirtualDubMod build 2542/release

Video
Идентификатор : 0
Формат : MPEG-4 Visual
Профиль формата : Advanced Simple@L5
Параметр BVOP формата : 2
Параметр QPel формата : No
Параметр GMC формата : No warppoints
Параметр матрицы формата : Default (H.263)
Идентификатор кодека : XVID
Идентификатор кодека/Подсказка : XviD
Продолжительность : 1h 32mn
Битрейт : 1 666 Kbps
Ширина : 720 pixels
Высота : 400 pixels
Соотношение сторон : 16:9
Частота кадров : 24.000 fps
Цветовое пространство : YUV
Субдискретизация насыщенности : 4:2:0
Битовая глубина : 8 bits
Тип развёртки : Progressive
Метод сжатия : Lossy
Бит/(Пиксели*Кадры) : 0.241
Размер потока : 1.07 GiB (78%)
Библиотека кодирования : XviD 1.2.1 (UTC 2008-12-04)

Audio
Идентификатор : 1
Формат : AC-3
Формат/Информация : Audio Coding 3
Расширение режима : CM (complete main)
Параметр Endianness формата : Big
Идентификатор кодека : 2000
Продолжительность : 1h 31mn
Вид битрейта : Constant
Битрейт : 448 Kbps
Каналы : 6 channels
Расположение каналов : Front: L C R, Side: L R, LFE
Частота : 48.0 KHz
Битовая глубина : 16 bits
Метод сжатия : Lossy
Задержка видео : 1s 0ms
Размер потока : 294 MiB (21%)
Выравнивание : Split accross interleaves
Продолжительность промежутка : 42 ms (1.00 video frame)
Время предзагрузки промежутка : 500 ms


Тэд Джонс и Затерянный город 3D скачать торрент


pb.wtf



Скачать Тэд Джонс и Затерянный город 3D через торрент http://pic.kartinco.top/images/1/rmqyi1rgn9.jpg Скачать фильм Тэд Джонс и Затерянный город 3D через торрент бесплантно в хорошем качестве Описание: Тэд — обычный чикагский строитель, страстно мечтающий о невероятных открытиях и опасных приключениях. Однажды его по ошибке ... 9.7 10 35
Info! Золотая раздача, скачанное не засчитывается.
Торрент: Зарегистрирован [2013-01-19 07:17] · скачан: 3 637 раз
Статус: √ проверено
Размер: 1.36 GB
Как cкачать? Как скачать Тэд Джонс и Затерянный город 3D через торрент | qTorrent

% Раздел Тема Автор DL S | L
3D Мультфильмы [ 1.72 GB ] Тэд Джонс и Затерянный город 3D / Las aventuras de Tadeo Jones 3D [2012 мультфильм DVDRip-AVC DUB лицензия] Anaglyph red'cyan slaventi-69 Скачать
1 | 0
Зарубежные Мультфильмы (DVD) [ 6.92 GB ] Тэд Джонс и Затерянный город 3D / Las aventuras de Tadeo Jones [2012 мультфильм DVD9] R5 voovaz Скачать
1 | 1

28-11-2019 20:33  

Отключить всю рекламу на сайте

20-01-2013 06:57 Тэд Джонс и Затерянный город 3D Скачать торрент  

отличный мулбь! смотрели с удовольствием! советую!pb.wtf



16-02-2013 19:25 Тэд Джонс и Затерянный город 3D Скачать торрент  

Спасибо за раздачу! И мы посмотрим с удовольствием.pb.wtf



    Дорогой пользователь! Огромная просьба, поблагодарите релизера, оцените раздачу и оставьте свои комментарий, если Вы скачали Тэд Джонс и Затерянный город 3D через торрент бесплатно! Внесите свою лепту в развитие PiratBit!
    Комментировать посты могут только пользователи прошедшие не сложную регистрацию
    Показать сообщения:    

    Тэд Джонс и Затерянный город 3D через торрент
    Скачать бесплатно Тэд Джонс и Затерянный город 3D
    Тэд Джонс и Затерянный город 3D скачать торрент
    Тэд Джонс и Затерянный город 3D смотреть онлайн
    Cкачать фильм Тэд Джонс и Затерянный город 3D бесплатно
    Тэд Джонс и Затерянный город 3D скачать торрент в хорошем качестве
    Тэд Джонс и Затерянный город 3D смотреть онлайн бесплатно в хорошем качестве


    Вы не можете начинать темы
    Вы не можете отвечать на сообщения
    Вы не можете редактировать свои сообщения
    Вы не можете удалять свои сообщения
    Вы не можете голосовать в опросах
    Вы не можете прикреплять файлы к сообщениям
    Вы можете скачивать файлы