новый адрес
Ссылка на приватное зеркало всего за 1$. Внимание количество ограничено!!!

iTunes

1+1

iTunes

мы

iTunes

1

iTunes

Чернобыль

iTunes

Ральф против интернета

Лицензия

ПШазам

Лицензия

Оно 2

Лицензия

30
pack

Вам бонус

ВАЖНО

!!Акция!!

Alien_RageХит недели

RePack

Resident Evil 21

ИГРА 18+

pack

RePack

jed

!!Акция!!

Alien_Rage

RePack

fifa19

RePack

Assassins Creed: Odyssey

RePack

NEED FOR SPEED™ PAYBACK

3 сезон

9 сезон

Бесстыжие 9 сезон

Все сериалы

все сериалы на PB.wtf

RePack

FAR CRY 5
Ребята, катастрофически не хватает 1900р. для оплаты серверов за Октябрь (всвязи с блокировками трафик упал в 3 раза), 1-2р., выручайте.
  

Офицер ранен / Officer Down (Брайан А Миллер) [2013 г., драма, криминал, VO] pb.wtf

Офицер ранен через торрент pb.wtf

Размер: 1.37 GB | Добавлен: 6 лет 10 мес. назад | Торрент скачан:1915 раз
Скачать  

19-01-2013 09:10 Офицер ранен Скачать торрент  

Офицер ранен / Officer Down

Год выпуска: 2013
Страна: США
Жанр: драма, криминал
Продолжительность: 01:37:25
Перевод: Любительский одноголосый [den904] [Janetta]

Режиссер: Брайан А Миллер
Продюссер: Джефф Мост, Джесс Мост, Джефф Райс
Сценарий: Джон Чейз

Бюджет: $12 000 000
Премьера в мире: 22 января 2013

MPAA: R лицам до 17 лет обязательно присутствие взрослого
IMDB: ожидание: 93% (373)
Кинопоиск: 7.474 38

В ролях: Стивен Дорфф, Доминик Пёрселл, Дэвид Бореаназ, Стивен Лэнг, Джеймс Вудс, Уолтон Гоггинс, Томми Флэнаган, Элизабет Рём

Описание: Детектив расследует серию изнасилований и убийств молодых девушек. У него самого довольно темное прошлое: когда-то он много пил, ходил по русским притонам и проститутками, попал из-за этого в мафиозную перестрелку, после чего кардинально поменял взгляды на жизнь и теперь старается быть примерным семьянином. Но собственное расследование заводит его не туда, и он начинает понимать, что его информаторы преследуют какие-то личные цели.

Видео: 720x304 (2.37:1), 23.976 fps, XviD build 50 ~1548 kbps avg, 0.29 bit/pixel
Аудио#1: 48 kHz, AC3 Dolby Digital, 3/2 (L,C,R,l,r) + LFE ch, ~448 kbps










Общее
Полное имя : D:TorrentOficer ranen.2013.HDRip.avi
Формат : AVI
Формат/Информация : Audio Video Interleave
Размер файла : 1,37 Гбайт
Продолжительность : 1 ч. 37 м.
Общий поток : 2006 Кбит/сек
Программа кодирования : VirtualDubMod 1.5.10.2 (build 2540/release)
Библиотека кодирования : VirtualDubMod build 2540/release

Видео
Идентификатор : 0
Формат : MPEG-4 Visual
Профиль формата : Advanced Simple@L5
Параметр BVOP формата : 2
Параметр QPel формата : Нет
Параметр GMC формата : Без точки перехода
Параметр матрицы формата : Default (MPEG)
Идентификатор кодека : XVID
Идентификатор кодека/Подсказка : XviD
Продолжительность : 1 ч. 37 м.
Битрейт : 1549 Кбит/сек
Ширина : 720 пикс.
Высота : 304 пикс.
Соотношение сторон : 2,35:1
Частота кадров : 23,976 кадр/сек
Цветовое пространство : YUV
Подвыборка цветности : 4:2:0
Битовая глубина : 8 бит
Тип развёртки : Прогрессивная
Метод сжатия : С потерями
Бит/(Пиксели*Кадры) : 0.295
Размер потока : 1,05 Гбайт (77%)
Библиотека кодирования : XviD 1.2.1 (UTC 2008-12-04)

Аудио
Идентификатор : 1
Формат : AC-3
Формат/Информация : Audio Coding 3
Расширение режима : CM (complete main)
Идентификатор кодека : 2000
Продолжительность : 1 ч. 37 м.
Вид битрейта : Постоянный
Битрейт : 448 Кбит/сек
Каналы : 6 каналов
Расположение каналов : Front: L C R, Side: L R, LFE
Частота : 48,0 КГц
Битовая глубина : 16 бит
Метод сжатия : С потерями
Размер потока : 312 Мбайт (22%)
Выравнивание : Разделение по промежуткам
Продолжительность промежутка : 42 мс. (1,00 видеокадр)
Время предзагрузки промежутка : 500 ms

pb.wtf



Скачать Офицер ранен через торрент http://pic.kartinco.top/images/1/pxd4d32kkc.jpg Скачать фильм Офицер ранен через торрент бесплантно в хорошем качестве Описание: Детектив расследует серию изнасилований и убийств молодых девушек. У него самого довольно темное прошлое: когда-то он много пил, ... 9.7 10 16
Info! Золотая раздача, скачанное не засчитывается.
Торрент: Зарегистрирован [2013-01-19 09:10] · скачан: 1 915 раз
Статус: √ проверено
Размер: 1.37 GB
Как cкачать? Как скачать Офицер ранен через торрент | qTorrent

% Раздел Тема Автор DL S | L
T Фильмы (мультфильмы) cо спонсором показа (Новинки AVI/MKV) [ 1.37 GB ] 911: Офицер ранен / 911: Officer Down [2018 WEB-DLRip] MVO ["Синема УС"] bober100 Скачать
1 | 0
Фильмы 2013 (Звук TS, Cam, VO, DVO) [ 2.16 GB ] Офицер ранен / Officer Down [2013 HDRip-AVC VO ] Mr. Freeman Скачать
1 | 0
T Фильмы [HD 720p, 1080p] (Хороший звук DUB, MVO) [ 3.57 GB ] Офицер ранен / Officer Down [2013 BDRip 720p VO] slaventi-69 Скачать
1 | 0


Последний раз редактировалось: jump88 (2013-03-13 05:49), всего редактировалось 1 раз
Отключить всю рекламу на сайте

01-02-2013 22:29 Офицер ранен Скачать торрент  

Как фильм????Оставьте комментарий!!!!pb.wtf



04-02-2013 19:13 Офицер ранен Скачать торрент  

шикарныйpb.wtf



15-02-2013 10:31 Офицер ранен Скачать торрент  

Норм плюс в нем снималась наша украинская певица КАМАЛИЯ ))pb.wtf



04-03-2013 20:34 Офицер ранен Скачать торрент  

film ne plohjoj. stoit posmotretjpb.wtf



12-09-2013 17:15 Офицер ранен Скачать торрент  

народ, а лицензия вообще будет? смущает перевод, хоть человек и старался...pb.wtf



    Дорогой пользователь! Огромная просьба, поблагодарите релизера, оцените раздачу и оставьте свои комментарий, если Вы скачали Офицер ранен через торрент бесплатно! Внесите свою лепту в развитие PiratBit!
    Комментировать посты могут только пользователи прошедшие не сложную регистрацию
    Показать сообщения:    

    Офицер ранен через торрент
    Скачать бесплатно Офицер ранен
    Офицер ранен скачать торрент
    Офицер ранен смотреть онлайн
    Cкачать фильм Офицер ранен бесплатно
    Офицер ранен скачать торрент в хорошем качестве
    Офицер ранен смотреть онлайн бесплатно в хорошем качестве


    Вы не можете начинать темы
    Вы не можете отвечать на сообщения
    Вы не можете редактировать свои сообщения
    Вы не можете удалять свои сообщения
    Вы не можете голосовать в опросах
    Вы не можете прикреплять файлы к сообщениям
    Вы можете скачивать файлы