Ссылка на приватное зеркало всего за 1$. Внимание количество ограничено!!!

iTunes

iTunes

iTunes

1

iTunes

iTunes

iTunes

iTunes

iTunes

30
pack

$ от Little Big

ВАЖНО

!!Акция!!

Alien_RageХит недели

RePack

Resident Evil 21

ИГРА 18+

pack

RePack

jed

!!Акция!!

Alien_Rage

RePack

fifa19

RePack

Assassins Creed: Odyssey

RePack

NEED FOR SPEED™ PAYBACK

4 сезон

9 сезон

Бесстыжие 9 сезон

Все сериалы

все сериалы на PB.wtf

RePack

FAR CRY 5
  

Кунг По: Нарвись на кулак / Kung Pow: Enter the Fist (Стив Одекерк) [2002 г., боевик, комедия, HDTV, MVO, лицензия] pb.wtf

Кунг По: Нарвись на кулак через торрент pb.wtf

Размер: 7.85 GB | Добавлен: 7 лет 5 мес. назад | Торрент скачан:78 раз
Скачать  

19-01-2013 16:35 Кунг По: Нарвись на кулак Скачать торрент  

Кунг По: Нарвись на кулак / Kung Pow: Enter the Fist

Год выпуска: 2002
Страна: США
Жанр: боевик, комедия
Продолжительность: 01:21:27
Перевод: Профессиональный многоголосый, Лицензия

Режиссер: Стив Одекерк
Продюссер: Том Коранда, Пол Маршал, Стив Одекерк
Сценарий: Стив Одекерк

Мировой рейтинг IMDB 5.90 (27 588)


В ролях: Стив Одекерк, Фэй Ланг, Лео Ли, Линг Линг Тсе, Лань Янь, Чиа Юнг Лью, Хуи Лу Чен, Чи Ма, Дженнифер Танг, Ло Минг

Описание: Слыхали, что Брюс Ли начал тренировки в шесть лет? Так вот, Избранный начал тренироваться еще когда был в зародыше: чтобы не тратить драгоценных девять месяцев на пустяки. Искусные хирурги имплантировали его матери маленькие нунчаки и все прочее, необходимое для тренировок.Овладев стилями тигра, дракона и другой живности, он понял, что в его руках сила целого зоопарка. А значит он готов отомстить убийце своей семьи — непобедимому Мастеру Боли! На пути к Истинному Предназначению его уже ждут смертельные опасности, но даже смертельное сверхоружие в совершенстве владеющей кунг-фу коровы не остановит великого воина!

Качество: HDTV
Формат: MKV
Видео кодек: MPEG2
Аудио кодек: AC3
Видео: MPEG2, 12.6 Mbps, 1920 x 1080, 29.976 fps
Аудио#1: AC-3, 384 Kbps, 6 channels, 48.0 KHz - MVO
Аудио#2: AC-3, 192 Kbps, 2 channels, 48.0 KHz - AVO
Аудио#3: AC-3, 384 Kbps, 6 channels, 48.0 KHz - ENG





Общее
Уникальный идентификатор : 211111562240035126505311833268773941898 (0x9ED29BA175F2E21C8E7AE7DA786F728A)
Полное имя : D:xxxKung.Pow.Enter.the.Fist.2002.1080i.HDTV.MPEG2.mkv
Формат : Matroska
Версия формата : Version 2
Размер файла : 7,85 Гбайт
Продолжительность : 1 ч. 21 м.
Режим общего битрейта : Переменный
Общий поток : 13,8 Мбит/сек
Дата кодирования : UTC 2011-08-04 01:55:53
Программа кодирования : mkvmerge v3.0.0 ('Hang up your Hang-Ups') built on Jan 6 2010 22:49:38
Библиотека кодирования : libebml v0.7.9 + libmatroska v0.8.1

Видео
Идентификатор : 1
Формат : MPEG Video
Версия формата : Version 2
Профиль формата : Main@High
Параметр BVOP формата : Да
Параметр матрицы формата : По умолчанию
Параметр GOP формата : Variable
Идентификатор кодека : V_MPEG2
Идентификатор кодека/Информация : MPEG 1 or 2 Video
Вид битрейта : Переменный
Битрейт : 12,6 Мбит/сек
Максимальный битрейт : 18,0 Мбит/сек
Ширина : 1920 пикселей
Высота : 1080 пикселей
Соотношение сторон : 16:9
Режим частоты кадров : Переменный
Частота кадров в оригинале : 29,970 кадров/сек
Цветовое пространство : YUV
Субдискретизация насыщенности : 4:2:0
Битовая глубина : 8 бит
Метод сжатия : С потерями
Заголовок : RG Uralmix
Default : Да
Forced : Нет

Аудио #1
Идентификатор : 2
Формат : AC-3
Формат/Информация : Audio Coding 3
Расширение режима : CM (complete main)
Параметр Endianness формата : Big
Идентификатор кодека : A_AC3
Продолжительность : 1 ч. 21 м.
Вид битрейта : Постоянный
Битрейт : 384 Кбит/сек
Каналы : 6 каналов
Расположение каналов : Front: L C R, Side: L R, LFE
Частота : 48,0 КГц
Битовая глубина : 16 бит
Метод сжатия : С потерями
Размер потока : 224 Мбайт (3%)
Заголовок : MVO
Язык : Russian
Default : Да
Forced : Нет

Аудио #2
Идентификатор : 3
Формат : AC-3
Формат/Информация : Audio Coding 3
Расширение режима : CM (complete main)
Параметр Endianness формата : Big
Идентификатор кодека : A_AC3
Продолжительность : 1 ч. 21 м.
Вид битрейта : Постоянный
Битрейт : 192 Кбит/сек
Каналы : 2 канала
Расположение каналов : Front: L R
Частота : 48,0 КГц
Битовая глубина : 16 бит
Метод сжатия : С потерями
Размер потока : 112 Мбайт (1%)
Заголовок : AVO
Язык : Russian
Default : Нет
Forced : Нет

Аудио #3
Идентификатор : 4
Формат : AC-3
Формат/Информация : Audio Coding 3
Расширение режима : CM (complete main)
Параметр Endianness формата : Big
Идентификатор кодека : A_AC3
Продолжительность : 1 ч. 21 м.
Вид битрейта : Постоянный
Битрейт : 384 Кбит/сек
Каналы : 6 каналов
Расположение каналов : Front: L C R, Side: L R, LFE
Частота : 48,0 КГц
Битовая глубина : 16 бит
Метод сжатия : С потерями
Размер потока : 224 Мбайт (3%)
Язык : English
Default : Нет
Forced : Нет

Текст
Идентификатор : 5
Формат : UTF-8
Идентификатор кодека : S_TEXT/UTF8
Идентификатор кодека/Информация : UTF-8 Plain Text
Язык : Russian
Default : Нет
Forced : Нет


Кунг По: Нарвись на кулак скачать торрент


pb.wtf



Скачать Кунг По: Нарвись на кулак через торрент http://pic.kartinco.top/images/1/9zgxztdwbo.jpg Скачать фильм Кунг По: Нарвись на кулак через торрент бесплантно в хорошем качестве Описание: Слыхали, что Брюс Ли начал тренировки в шесть лет? Так вот, Избранный начал тренироваться еще когда был в зародыше: чтобы не ... 5 10 1
Info! Золотая раздача, скачанное не засчитывается.
Торрент: Зарегистрирован [2013-01-19 16:35] · скачан: 78 раз
Статус: √ проверено
Размер: 7.85 GB
Как cкачать? Как скачать Кунг По: Нарвись на кулак через торрент | qTorrent

% Раздел Тема Автор DL S | L
Фильмы 2001-2005 [ 1.37 GB ] Кунг По: Нарвись на кулак / Kung Pow: Enter the Fist [2002 DVDRip MVO лицензия] Userman4ik Скачать
1 | 1


Последний раз редактировалось: Userman4ik (2013-01-20 07:07), всего редактировалось 3 раз(а)

28-11-2019 20:33  

Отключить всю рекламу на сайте

19-01-2013 16:44 Кунг По: Нарвись на кулак Скачать торрент  

смотрел давно. ржал до слёз... ещё разок гляну. корова рулит! pb.wtf



19-01-2013 16:56 Кунг По: Нарвись на кулак Скачать торрент  

Весит многовато,вот может автор сожмёт всё это дело гига в 2,было бы чудесно))
А вообще спасибо,фильмец ржачный!pb.wtf



19-01-2013 17:29 Кунг По: Нарвись на кулак Скачать торрент  

Miaki писал(а):

Весит многовато,вот может автор сожмёт всё это дело гига в 2,было бы чудесно))
А вообще спасибо,фильмец ржачный!

на :) Кунг По: Нарвись на кулак / Kung Pow: Enter the Fist pb.wtf



19-01-2013 20:59 Кунг По: Нарвись на кулак Скачать торрент  

молотчага ! опять поржал!!! отличный фильм! :good: :good: :good: спасибо.pb.wtf



19-01-2013 21:58 Кунг По: Нарвись на кулак Скачать торрент  

Userman4ik - исправляем:
1) Обложка
Размер обложки не должен превышать 700*700 пикселей.
Размер обложки должен быть не меньше 200*200 пикселей.
2) Видео кодек: MPEG2
pb.wtf



    Дорогой пользователь! Огромная просьба, поблагодарите релизера, оцените раздачу и оставьте свои комментарий, если Вы скачали Кунг По: Нарвись на кулак через торрент бесплатно! Внесите свою лепту в развитие PiratBit!
    Комментировать посты могут только пользователи прошедшие не сложную регистрацию
    Показать сообщения:    

    Кунг По: Нарвись на кулак через торрент
    Скачать бесплатно Кунг По: Нарвись на кулак
    Кунг По: Нарвись на кулак скачать торрент
    Кунг По: Нарвись на кулак смотреть онлайн
    Cкачать фильм Кунг По: Нарвись на кулак бесплатно
    Кунг По: Нарвись на кулак скачать торрент в хорошем качестве
    Кунг По: Нарвись на кулак смотреть онлайн бесплатно в хорошем качестве


    Вы не можете начинать темы
    Вы не можете отвечать на сообщения
    Вы не можете редактировать свои сообщения
    Вы не можете удалять свои сообщения
    Вы не можете голосовать в опросах
    Вы не можете прикреплять файлы к сообщениям
    Вы можете скачивать файлы