Лицензия

MVO

1

1 сезон

Лицензия

Лицензия

13

MVO

1 сезон

Ultimate

pack

Рекомендуем

30

Repack

ВАЖНО

ВАЖНО

Ghostwire

RePack

jed

RePack

fifa19

RePack

RDR2

RePack

NEED FOR SPEED™ PAYBACK

RePack

Кинопоиск HD

 Острые козырьки 6 сезон

6 сезон

FAR CRY 6

RePack

Лицензия

MVO

1

1 сезон

1 сезон

Лицензия

  

Сказания земноморья / Gedo senki (Горо Миядзаки) [2006 г., аниме, мультфильм, фэнтези, приключения, DVDRip, DUB, лицензия]

Сказания земноморья через торрент pb.wtf

Качают: 1 [ 0 KB/s ]
Размер: 1.46 GB | Добавлен: 9 лет 8 мес. назад | Торрент скачан:254 раза
Смотреть онлайн Сказания земноморья | Скачать   

20-01-2013 06:47 Сказания земноморья Скачать торрент  

Сказания земноморья / Gedo senki

Год выпуска: 2006
Страна: Япония
Жанр: аниме, мультфильм, фэнтези, приключения
Продолжительность: 01:55:00
Перевод: Дубляж, Лицензия
Режиссер: Горо Миядзаки
Продюссер: Стив Элперт, Хавьер Понтон, Тосио Судзуки
Сценарий: Горо Миядзаки, Кейко Нива, Хаяо Миядзаки
Премьера в мире: 29 июля 2006


Роли дублировали: Велимир Русаков, Анна Штукатурова, Никита Прозоровский, Ольга Кузнецова, Юрий Меншагин,
Ольга Зверева, Дмитрий Филимонов, Наталья Батрак, Ирина Маликова, Олег Куценко
Описание: Горы, пещеры и замки сказочной страны, драконы и амулеты, заклинания и пророчества, маги и принцы, жрицы и убийцы, злодеи и праведники — в новой приключенческой анимационной фэнтази-саге о волшебном мире Земноморья.

Земноморье в опасности, мир волшебства на грани исчезновения. Вселенское равновесие нарушено: драконы, обитающие в западном пределе сказочной страны, неожиданно появляются на востоке во владениях людей. Верховный маг Гед отправляется на поиски первопричины беды. В пути он встречает Аррена, принца Энлада, который после свершения страшного греха, убийства отца, бежит из родного края, преследуемый тенью.

Прибыв в столицу Земноморья Норт Таун, путники находят пристанище в доме Белой Дамы, бывшей жрицы-хранительницы темных Гробниц Атуана. Верховный Маг Гед открывает Аррену тайны жизни и смерти, правды и лжи. Призывая служить истине с полной самоотдачей, он словно передает эстафету дерзновенному юноше, которому предначертана особая миссия в этом мире. Но успеют ли они противостать силам зла? Или уже слишком поздно…
Качество: DVDRip
Формат: AVI
Видео кодек: XviD
Аудио кодек: AC3
Видео: 720x368 (1.96:1), 25 fps, XviD MPEG-4 ~1425 kbps avg, 0.22 bit/pixel
Аудио#1: 48 kHz, AC3 Dolby Digital, 3/2 (L,C,R,l,r) + LFE ch, ~448.00 kbps avg
скриншот   скриншот   скриншот   скриншот   скриншот   скриншот  

General
Complete name : E:Загрузкиskazania_zemnomoria_1,46.avi
Format : AVI
Format/Info : Audio Video Interleave
File size : 1.46 GiB
Duration : 1h 50mn
Overall bit rate : 1 883 Kbps
Writing application : VirtualDubMod 1.5.10.2 (build 2540/release)
Writing library : VirtualDubMod build 2540/release

Video
ID : 0
Format : MPEG-4 Visual
Format profile : Advanced [email protected]
Format settings, BVOP : 2
Format settings, QPel : No
Format settings, GMC : No warppoints
Format settings, Matrix : Default (MPEG)
Muxing mode : Packed bitstream
Codec ID : XVID
Codec ID/Hint : XviD
Duration : 1h 50mn
Bit rate : 1 425 Kbps
Width : 720 pixels
Height : 368 pixels
Display aspect ratio : 1.957
Frame rate : 25.000 fps
Color space : YUV
Chroma subsampling : 4:2:0
Bit depth : 8 bits
Scan type : Progressive
Compression mode : Lossy
Bits/(Pixel*Frame) : 0.215
Stream size : 1.10 GiB (76%)
Writing library : XviD 1.2.1 (UTC 2008-12-04)

Audio
ID : 1
Format : AC-3
Format/Info : Audio Coding 3
Mode extension : CM (complete main)
Codec ID : 2000
Duration : 1h 50mn
Bit rate mode : Constant
Bit rate : 448 Kbps
Channel(s) : 6 channels
Channel positions : Front: L C R, Side: L R, LFE
Sampling rate : 48.0 KHz
Bit depth : 16 bits
Compression mode : Lossy
Stream size : 355 MiB (24%)
Alignment : Split accross interleaves
Interleave, duration : 40 ms (1.00 video frame)
Interleave, preload duration : 500 ms




Скачать Сказания земноморья через торрент https://pic1.kartinco.top/images/111/mvtsyb36y2.png Скачать, смотреть онлайн Сказания земноморья бесплантно в хорошем качестве Описание: Горы, пещеры и замки сказочной страны, драконы и амулеты, заклинания и пророчества, маги и принцы, жрицы и убийцы, злодеи и ... 9.3 10 7
Info! Золотая раздача, скачанное не засчитывается.
Торрент: Зарегистрирован [2013-01-20 06:47] · скачан: 254 раз
Статус: √ проверено
Размер: 1.46 GB
Как cкачать? Как скачать Сказания земноморья через торрент | UTorrent

% Раздел Тема Автор DL S | L
Аниме [DVDrip, WEB-DLRip, HDrip] [ 1.37 GB ] Сказания Земноморья / Gedo senki | Дубляж | DVDRip Seff2 Скачать
2 | 0

28-11-2019 20:33  

Отключить вcю реклaмy на сайте

    Дорогой пользователь! Огромная просьба, поблагодарите релизера, оцените раздачу и оставьте свои комментарий, если Вы скачали Сказания земноморья через торрент бесплатно!!
    Комментировать посты могут только пользователи прошедшие не сложную регистрацию
    Показать сообщения:    


    Сказания земноморья через торрент
    Скачать бесплатно Сказания земноморья
    Сказания земноморья скачать торрент
    Сказания земноморья смотреть онлайн
    Cкачать фильм Сказания земноморья бесплатно
    Сказания земноморья скачать торрент в хорошем качестве
    Сказания земноморья смотреть онлайн бесплатно в хорошем качестве
    Вы не можете начинать темы
    Вы не можете отвечать на сообщения
    Вы не можете редактировать свои сообщения
    Вы не можете удалять свои сообщения
    Вы не можете голосовать в опросах
    Вы не можете прикреплять файлы к сообщениям
    Вы можете скачивать файлы