Всегда рабочее зеркало без VPN и Proxy просто перед .vidak.icu напиши любое слово или цифру, Пример http://ij0h.vidak.icu

Лицензия

MVO

1 сезон

1

1 сезон

iTunes

1 сезон

13

1 сезон

Deluxe

pack

Рекомендуем

Repack

30

ВАЖНО

RePack

MK11

RePack

jed

RePack

fifa19

RePack

RDR2

RePack

NEED FOR SPEED™ PAYBACK

Кинопоиск HD

6 сезон

 Острые козырьки 6 сезон

Все сериалы

все сериалы на PB.wtf

RePack

FAR CRY 5
  
Magnet ссылка

Возвращение кота / Neko no ongaeshi (Хироюки Морита) [2002 г., аниме, мультфильм, фэнтези, приключения, семейны, DVDRip, MVO, лицензия] pb.wtf

Возвращение кота через торрент pb.wtf

Качают: 1 [ 0 KB/s ]
Размер: 1.98 GB | Добавлен: 9 лет 6 мес. назад | Торрент скачан:99 раз
Смотреть онлайн Возвращение кота | Скачать    Ребята, помогите собрать деньги на оплату серверов!!!

20-01-2013 07:06 Возвращение кота Скачать торрент  

Возвращение кота / Neko no ongaeshi

Год выпуска: 2002
Страна: Япония
Жанр: аниме, мультфильм, фэнтези, приключения, семейный
Продолжительность: 01:15:00
Перевод: Профессиональный многоголосый, Лицензия
Режиссер: Хироюки Морита
Продюссер: Нед Лотт, Тосио Судзуки, Нозому Такахаси
Сценарий: Аои Хираги, Рейко Ёсида, Синди Дэвис Хьюит
Премьера в мире: 19 июля 2002

В ролях: Чизуру Икеваки, Ёсихико Хакамада, Аки Маэда, Такаюки Ямада, Хитоми Сато, Кента Сатои, Мари Хамада, Тэцу Ватанабэ, Ёсуке Саито, Кумико Окае
Описание: В разгар дня на оживленной улице юная Хару храбро выхватывает из-под колес грузовика очаровательного кота. К ее великому удивлению, кот встает на задние лапки и благодарит Хару на человеческом языке. Оказывается, перед ней принц из загадочного Кошачьего царства, и теперь могущественный Кошачий царь хочет женить его на отважной спасительнице.

Вскоре он похищает Хару, которая вовсе не желает быть кошачьей принцессой, и только верные усатые и хвостатые друзья — толстый бродяга Мьюта и великолепный Барон смогут вызволить ее из кошачьего плена. Впереди их ждут неожиданные встречи и самые невероятные приключения в неведомом Царстве Кошек. Сумеет ли Хару найти дорогу домой?
Качество: DVDRip
Формат: AVI
Видео кодек: DivX
Аудио кодек: AC3
Видео: DivX, 720x400, 23.98fps, 3324Kbps
Аудио#1: AC3, 48000Hz, 6ch, 448Kbps
скриншот   скриншот   скриншот   скриншот   скриншот   скриншот  

General
Complete name : E:ЗагрузкиВозвращение кота.avi
Format : AVI
Format/Info : Audio Video Interleave
File size : 1.98 GiB
Duration : 1h 14mn
Overall bit rate : 3 779 Kbps
Writing application : VirtualDubMod 1.5.4.1 (build 2178/release)
Writing library : VirtualDubMod build 2178/release

Video
ID : 0
Format : MPEG-4 Visual
Format settings, BVOP : No
Format settings, QPel : No
Format settings, GMC : No warppoints
Format settings, Matrix : Default (H.263)
Codec ID : DX50
Codec ID/Hint : DivX 5
Duration : 1h 14mn
Bit rate : 3 324 Kbps
Width : 720 pixels
Height : 400 pixels
Display aspect ratio : 16:9
Frame rate : 23.976 fps
Color space : YUV
Chroma subsampling : 4:2:0
Bit depth : 8 bits
Scan type : Progressive
Compression mode : Lossy
Bits/(Pixel*Frame) : 0.481
Stream size : 1.74 GiB (88%)
Writing library : DivX 6.7.0 (UTC 2007-09-20)

Audio
ID : 1
Format : AC-3
Format/Info : Audio Coding 3
Mode extension : CM (complete main)
Codec ID : 2000
Duration : 1h 14mn
Bit rate mode : Constant
Bit rate : 448 Kbps
Channel(s) : 6 channels
Channel positions : Front: L C R, Side: L R, LFE
Sampling rate : 48.0 KHz
Bit depth : 16 bits
Compression mode : Lossy
Stream size : 240 MiB (12%)
Alignment : Split accross interleaves
Interleave, duration : 96 ms (2.30 video frames)
Interleave, preload duration : 96 ms

pb.wtf



Скачать Возвращение кота через торрент https://pic1.kartinco.top/images/111/xqqr5683fv.png Скачать, смотреть онлайн Возвращение кота бесплантно в хорошем качестве Описание: В разгар дня на оживленной улице юная Хару храбро выхватывает из-под колес грузовика очаровательного кота. К ее великому ... 5 10 1
Info! Золотая раздача, скачанное не засчитывается.
Торрент: Зарегистрирован [2013-01-20 07:06] · скачан: 99 раз
Статус: √ проверено
Размер: 1.98 GB
Как cкачать? Как скачать Возвращение кота через торрент | UTorrent

28-11-2019 20:33  

Отключить вcю реклaмy на сайте

20-01-2013 07:20 Возвращение кота Скачать торрент  

Отличный мульт. Позитивный простой. Приятный на "вкус". Спасибоpb.wtf



20-01-2013 07:29 Возвращение кота Скачать торрент  

tolikss330 да, мне тоже понравился:)pb.wtf



09-11-2015 06:29 Возвращение кота Скачать торрент  

Встаньте на раздачу))pb.wtf



07-12-2016 16:54 Возвращение кота Скачать торрент  

дайте скорости пожалуйста....
плизики.....pb.wtf



08-12-2016 06:26 Возвращение кота Скачать торрент  

3ий день уже пощёл, на раздачи ни кого хотя написанно 5 сидов.pb.wtf



    Дорогой пользователь! Огромная просьба, поблагодарите релизера, оцените раздачу и оставьте свои комментарий, если Вы скачали Возвращение кота через торрент бесплатно!
    Комментировать посты могут только пользователи прошедшие не сложную регистрацию
    Показать сообщения:    

    Возвращение кота через торрент
    Скачать бесплатно Возвращение кота
    Возвращение кота скачать торрент
    Возвращение кота смотреть онлайн
    Cкачать фильм Возвращение кота бесплатно
    Возвращение кота скачать торрент в хорошем качестве
    Возвращение кота смотреть онлайн бесплатно в хорошем качестве


    Вы не можете начинать темы
    Вы не можете отвечать на сообщения
    Вы не можете редактировать свои сообщения
    Вы не можете удалять свои сообщения
    Вы не можете голосовать в опросах
    Вы не можете прикреплять файлы к сообщениям
    Вы можете скачивать файлы