Всегда рабочее зеркало без VPN и Proxy просто перед .vidak.icu напиши любое слово или цифру, Пример http://2jgr.vidak.icu

MVO

MVO

1 сезон

1

1 сезон

iTunes

1 сезон

13

1 сезон

Deluxe

pack

Рекомендуем

Repack

30

ВАЖНО

RePack

MK11

RePack

jed

RePack

fifa19

RePack

RDR2

RePack

NEED FOR SPEED™ PAYBACK

Кинопоиск HD

6 сезон

 Острые козырьки 6 сезон

Все сериалы

все сериалы на PB.wtf

RePack

FAR CRY 5
  
Magnet ссылка

Бычара / Rundskop (Михаэль Р. Роскам) [2011 г., драма, криминал, HDRip, MVO, НТВ+] pb.wtf

Бычара через торрент pb.wtf

Размер: 1.46 GB | Добавлен: 9 лет 6 мес. назад | Торрент скачан:233 раза
Смотреть онлайн Бычара | Скачать    Ребята, помогите собрать деньги на оплату серверов!!!

21-01-2013 09:48 Бычара Скачать торрент  

Бычара / Rundskop

Год выпуска: 2011
Страна: Бельгия
Жанр: драма, криминал
Продолжительность: 02:03:35
Перевод: Профессиональный многоголосый, [НТВ+]

Режиссер: Михаэль Р. Роскам
Продюссер: Барт Ван Лангендонк, Карлос Бедран, Вилант Бёкельман
Сценарий: Михаэль Р. Роскам

Мировой рейтинг IMDB 7.30 (8 550)


В ролях: Маттиас Шонартс, Джероен Персеваль, Жанна Дандуа, Барбара Сарафьян, Тибо Ванденборре, Фрэнк Ламмерс, Сэм Ловик, Робин Вальвекенс, Баудоин Вольверц, Давид Муржиа

Описание: К молодому скотоводу Джекки Вэнмарсениллу приезжает недобросовестный ветеринар, чтобы заключить теневую сделку с печально известным западно-фламандским торговцем говядины. Но убийство федерального полицейского, и неожиданное столкновение с тайной из прошлого Джекки, приводят в движение цепь событий с далеко идущими последствиями. Захватывающая трагедия о судьбе, потерянной невиновности и дружбе, о преступлении и наказании, но также и о противоречивых желаниях и необратимости судьбы человека.

Качество: HDRip
Формат: AVI
Видео кодек: XviD
Аудио кодек: AC3
Видео: 720x304 (2.37:1), 25 fps, XviD build 63 ~1525 kbps avg, 0.28 bit/pixel
Аудио#1: 48 kHz, AC3 Dolby Digital, 2/0 (L,R) ch, ~160.00 kbps avg

General
Complete name : H:киноBy4ara.2011.P.HDRip.avi
Format : AVI
Format/Info : Audio Video Interleave
File size : 1.46 GiB
Duration : 2h 3mn
Overall bit rate : 1 695 Kbps
Writing application : VirtualDubMod 1.5.10.2 (build 2540/release)
Writing library : VirtualDubMod build 2540/release

Video
ID : 0
Format : MPEG-4 Visual
Format profile : Advanced [email protected]
Format settings, BVOP : 2
Format settings, QPel : No
Format settings, GMC : No warppoints
Format settings, Matrix : Default (H.263)
Codec ID : XVID
Codec ID/Hint : XviD
Duration : 2h 3mn
Bit rate : 1 526 Kbps
Width : 720 pixels
Height : 304 pixels
Display aspect ratio : 2.35:1
Frame rate : 25.000 fps
Color space : YUV
Chroma subsampling : 4:2:0
Bit depth : 8 bits
Scan type : Progressive
Compression mode : Lossy
Bits/(Pixel*Frame) : 0.279
Stream size : 1.32 GiB (90%)
Writing library : XviD 63

Audio
ID : 1
Format : AC-3
Format/Info : Audio Coding 3
Mode extension : CM (complete main)
Codec ID : 2000
Duration : 2h 3mn
Bit rate mode : Constant
Bit rate : 160 Kbps
Channel(s) : 2 channels
Channel positions : Front: L R
Sampling rate : 48.0 KHz
Bit depth : 16 bits
Compression mode : Lossy
Stream size : 141 MiB (9%)
Alignment : Split accross interleaves
Interleave, duration : 40 ms (1.00 video frame)
Interleave, preload duration : 500 ms


Бычара скачать торрент


pb.wtf



Скачать Бычара через торрент https://pic1.kartinco.top/images/111/8nprgs65xb.jpg Скачать, смотреть онлайн Бычара бесплантно в хорошем качестве Описание: К молодому скотоводу Джекки Вэнмарсениллу приезжает недобросовестный ветеринар, чтобы заключить теневую сделку с печально ... 9 10 1
Info! Золотая раздача, скачанное не засчитывается.
Торрент: Зарегистрирован [2013-01-21 09:48] · скачан: 233 раз
Статус: √ проверено
Размер: 1.46 GB
Как cкачать? Как скачать Бычара через торрент | UTorrent

% Раздел Тема Автор DL S | L
Фильмы [HD 720p, 1080p] (Хороший звук DUB, MVO) [ 8.9 GB ] Бычара / Rundskop [2011 BDRip 1080p] MVO+VO bober100 Скачать
1 | 0

28-11-2019 20:33  

Отключить вcю реклaмy на сайте

21-01-2013 12:08 Бычара Скачать торрент  

интересно? pb.wtf



21-01-2013 13:24 Бычара Скачать торрент  

ar4i99 писал(а):

интересно?

да под пиво пойдет pb.wtf



19-02-2013 16:25 Бычара Скачать торрент  

О полном разложении европы. Самое обидное, что это чмо считает нас за дикарей.pb.wtf



    Дорогой пользователь! Огромная просьба, поблагодарите релизера, оцените раздачу и оставьте свои комментарий, если Вы скачали Бычара через торрент бесплатно!
    Комментировать посты могут только пользователи прошедшие не сложную регистрацию
    Показать сообщения:    

    Бычара через торрент
    Скачать бесплатно Бычара
    Бычара скачать торрент
    Бычара смотреть онлайн
    Cкачать фильм Бычара бесплатно
    Бычара скачать торрент в хорошем качестве
    Бычара смотреть онлайн бесплатно в хорошем качестве


    Вы не можете начинать темы
    Вы не можете отвечать на сообщения
    Вы не можете редактировать свои сообщения
    Вы не можете удалять свои сообщения
    Вы не можете голосовать в опросах
    Вы не можете прикреплять файлы к сообщениям
    Вы можете скачивать файлы