MEGA SALE -50% FORZA HORIZON 4 ULTIMATE+ВСЕ DLC+ОНЛАЙН всего за 599р. 299 руб. (супер цена). Внимание количество ограничено!!!

iTunes

1+1

iTunes

мы

iTunes

1

iTunes

Чернобыль

iTunes

Ральф против интернета

Лицензия

ПШазам

Лицензия

Игра престолов

Лицензия

30
pack

ВАЖНО

!!Акция!!

Alien_RageХит недели

RePack

Resident Evil 21

ИГРА 18+

pack

RePack

Metro:Exodus

!!Акция!!

Alien_Rage

RePack

fifa19

RePack

Assassins Creed: Odyssey

RePack

NEED FOR SPEED™ PAYBACK

3 сезон

9 сезон

Бесстыжие 9 сезон

Все сериалы

все сериалы на PB.wtf

RePack

FAR CRY 5
Ребята, катастрофически не хватает 7730р. для оплаты серверов за АВГУСТ (всвязи с блокировками трафик упал в 3 раза), 1-2р., выручайте.
  

Травка / Leaves of Grass (Тим Блейк Нельсон) [2009 г., триллер, драма, комедия, криминал, HDRip-AVC, MVO] pb.wtf

Травка через торрент pb.wtf

Размер: 2.15 GB | Добавлен: 6 лет 7 мес. назад | Торрент скачан:224 раза
Скачать  

23-01-2013 08:31 Травка Скачать торрент  

Травка / Leaves of Grass

Год выпуска: 2009
Страна: США
Жанр: триллер, драма, комедия, криминал
Продолжительность: 01:41:31
Перевод: Профессиональный многоголосый

Режиссер: Тим Блейк Нельсон
Продюссер: Эли Кон, Кристина Дубин, Джон Лэнгли
Сценарий: Тим Блейк Нельсон

Бюджет: $9 000 000
Премьера в мире: 14 сентября 2009



В ролях: Эдвард Нортон, Кери Рассел, Тим Блейк Нельсон, Ричард Дрейфусс, Сьюзен Сарандон, Тай Бурелл, Мелани Лински, Люси ДеВито, Кент Джуд Бернард, Амелия Кэмпбелл

Описание: В центре сюжета братья-близнецы, один из которых — успешный преподаватель философии, а другой — его полная противоположность, лодырь, выращивающий марихуану. Однажды преподаватель оказывается вынужден вернуться в родную Оклахому, к брату, где оказывается втянут в опасную аферу против местного наркобарона...

Качество: HDRip-AVC
Формат: MKV
Видео кодек: H.264
Аудио кодек: AC3
Видео: 704x 384 (1,85:1),23,976fps, AVC MPEG-4 (H.264), ~2055 kbps avg, 0.317 bit/pixel
Аудио#1: русский 48 kHz, AC3 Dolby Digital, 3/2 (L,C,R,l,r) + LFE ch, ~448 kbps avg Профессиональный многоголосый
Аудио#2: английский 48 kHz, AC3 Dolby Digital, 3/2 (L,C,R,l,r) + LFE ch, ~448 kbps avg Оригинал
Автор рипа:




Общее
Уникальный идентификатор : 216989399161644404203609558042031268295 (0xA33EA35D894A72B5BD5299DB020DA1C7)
Полное имя : H:Travka .mkv
Формат : Matroska
Версия формата : Version 2
Размер файла : 2,15 Гбайт
Продолжительность : 1 ч. 44 м.
Общий поток : 2947 Кбит/сек
Дата кодирования : UTC 2013-01-23 07:08:19
Программа кодирования : mkvmerge v4.4.0 ('Die Wiederkehr') сборка от Oct 31 2010 21:52:48
Библиотека кодирования : libebml v1.0.0 + libmatroska v1.0.0

Видео
Идентификатор : 1
Формат : AVC
Формат/Информация : Advanced Video Codec
Профиль формата : High@L4.1
Параметр CABAC формата : Да
Параметр ReFrames формата : 4 кадра
Режим смешивания : Header stripping
Идентификатор кодека : V_MPEG4/ISO/AVC
Продолжительность : 1 ч. 44 м.
Битрейт : 2055 Кбит/сек
Ширина : 704 пикселя
Высота : 384 пикселя
Соотношение сторон : 1,85:1
Частота кадров : 23,976 кадра/сек
Цветовое пространство : YUV
Субдискретизация насыщенности : 4:2:0
Битовая глубина : 8 бит
Тип развёртки : Прогрессивная
Бит/(Пиксели*Кадры) : 0.317
Размер потока : 1,45 Гбайт (68%)
Библиотека кодирования : x264 core 125 r2200 999b753
Настройки программы : cabac=1 / ref=4 / deblock=1:-1:-1 / analyse=0x3:0x113 / me=umh / subme=7 / psy=1 / psy_rd=1.00:0.20 / mixed_ref=1 / me_range=16 / chroma_me=1 / trellis=2 / 8x8dct=1 / cqm=0 / deadzone=21,11 / fast_pskip=0 / chroma_qp_offset=-3 / threads=6 / lookahead_threads=1 / sliced_threads=0 / nr=0 / decimate=0 / interlaced=0 / bluray_compat=0 / constrained_intra=0 / bframes=4 / b_pyramid=2 / b_adapt=2 / b_bias=0 / direct=1 / weightb=1 / open_gop=0 / weightp=2 / keyint=250 / keyint_min=23 / scenecut=40 / intra_refresh=0 / rc_lookahead=50 / rc=abr / mbtree=1 / bitrate=2055 / ratetol=1.0 / qcomp=0.60 / qpmin=0 / qpmax=69 / qpstep=4 / vbv_maxrate=17500 / vbv_bufsize=14000 / nal_hrd=none / ip_ratio=1.40 / aq=1:1.00
Default : Да
Forced : Нет

Аудио #1
Идентификатор : 2
Формат : AC-3
Формат/Информация : Audio Coding 3
Расширение режима : CM (complete main)
Параметр Endianness формата : Big
Режим смешивания : Header stripping
Идентификатор кодека : A_AC3
Продолжительность : 1 ч. 44 м.
Вид битрейта : Постоянный
Битрейт : 448 Кбит/сек
Каналы : 6 каналов
Расположение каналов : Front: L C R, Side: L R, LFE
Частота : 48,0 КГц
Битовая глубина : 16 бит
Метод сжатия : С потерями
Размер потока : 335 Мбайт (15%)
Язык : Russian
Default : Да
Forced : Нет

Аудио #2
Идентификатор : 3
Формат : AC-3
Формат/Информация : Audio Coding 3
Расширение режима : CM (complete main)
Параметр Endianness формата : Big
Режим смешивания : Header stripping
Идентификатор кодека : A_AC3
Продолжительность : 1 ч. 44 м.
Вид битрейта : Постоянный
Битрейт : 448 Кбит/сек
Каналы : 6 каналов
Расположение каналов : Front: L C R, Side: L R, LFE
Частота : 48,0 КГц
Битовая глубина : 16 бит
Метод сжатия : С потерями
Размер потока : 335 Мбайт (15%)
Язык : English
Default : Нет
Forced : Нет


Травка скачать торрент


pb.wtf



Скачать Травка через торрент http://pic.kartinco.top/images/1/2dkizw8j5s.png Скачать фильм Травка через торрент бесплантно в хорошем качестве Описание: В центре сюжета братья-близнецы, один из которых — успешный преподаватель философии, а другой — его полная противоположность, ... 10 10 3
Info! Золотая раздача, скачанное не засчитывается.
Торрент: Зарегистрирован [2013-01-23 08:31] · скачан: 224 раз
Статус: √ проверено
Размер: 2.15 GB
Как cкачать? Как скачать Травка через торрент | qTorrent

% Раздел Тема Автор DL S | L
Фильмы [HD 720p, 1080p] (Хороший звук DUB, MVO) [ 10.53 GB ] Травка / Leaves of Grass [2009 BDRip 1080p by msltel] MVO msltel Скачать
1 | 0
Фильмы [HD 720p, 1080p] (Хороший звук DUB, MVO) [ 4.04 GB ] Травка / Leaves of Grass [2009 BDRip 720p by msltel] MVO msltel Скачать
1 | 0
Фильмы 2009 [ 744 MB ] Травка / Leaves of Grass [2009 HDRip] VintMosina Скачать
1 | 0
Фильмы 2009 [ 2.18 GB ] Травка / Leaves of Grass [2009 ... BDRip] Shmel Скачать
1 | 0
Фильмы 2009 [ 1.37 GB ] Травка / Leaves of Grass [2009 DVDRip] Hazardo Скачать
1 | 0
Фильмы 2009 [ 742 MB ] Травка / Leaves of Grass [2009 HDRip] ПАРАДОКС Скачать
1 | 0


>> Регистрируемся здесь <<






Отзывы и комментарии о схеме читаем и пишем здесь: ---> Отзывы и комментарии о схеме

Новые благодарочки в телеграм довольных пользователей:
скриншот   скриншот   скриншот   скриншот   скриншот

23-01-2013 10:06 Травка Скачать торрент  

Как фильмец? :good2:pb.wtf



23-01-2013 11:59 Травка Скачать торрент  

сейчас узнаем
как онpb.wtf



    Дорогой пользователь! Огромная просьба, поблагодарите релизера, оцените раздачу и оставьте свои комментарий, если Вы скачали Травка через торрент бесплатно! Внесите свою лепту в развитие PiratBit!
    Комментировать посты могут только пользователи прошедшие не сложную регистрацию
    Показать сообщения:    

    Травка через торрент
    Скачать бесплатно Травка
    Травка скачать торрент
    Травка смотреть онлайн
    Cкачать фильм Травка бесплатно
    Травка скачать торрент в хорошем качестве
    Травка смотреть онлайн бесплатно в хорошем качестве


    Вы не можете начинать темы
    Вы не можете отвечать на сообщения
    Вы не можете редактировать свои сообщения
    Вы не можете удалять свои сообщения
    Вы не можете голосовать в опросах
    Вы не можете прикреплять файлы к сообщениям
    Вы можете скачивать файлы