новый адрес
Ссылка на приватное зеркало всего за 1$. Внимание количество ограничено!!!

iTunes

1+1

iTunes

мы

iTunes

1

iTunes

Чернобыль

iTunes

Ральф против интернета

Лицензия

ПШазам

Лицензия

Оно 2

Лицензия

30
pack

Вам бонус

ВАЖНО

!!Акция!!

Alien_RageХит недели

RePack

Resident Evil 21

ИГРА 18+

pack

RePack

jed

!!Акция!!

Alien_Rage

RePack

fifa19

RePack

Assassins Creed: Odyssey

RePack

NEED FOR SPEED™ PAYBACK

3 сезон

9 сезон

Бесстыжие 9 сезон

Все сериалы

все сериалы на PB.wtf

RePack

FAR CRY 5
Ребята, катастрофически не хватает 1900р. для оплаты серверов за Октябрь (всвязи с блокировками трафик упал в 3 раза), 1-2р., выручайте.
  

Табу / Tabu (Мигель Гомеш) [2012 г., драма, мелодрама, BDRip 720p, MVO, лицензия] pb.wtf

Табу через торрент pb.wtf

Размер: 4.68 GB | Добавлен: 6 лет 10 мес. назад | Торрент скачан:72 раза
Скачать  

24-01-2013 02:01 Табу Скачать торрент  

Табу / Tabu

Год выпуска: 2012
Страна: Португалия, Германия, Бразилия, Франция
Жанр: драма, мелодрама
Продолжительность: 01:58:03
Перевод: Профессиональный (многоголосый)
Тип релиза: Лицензия

Режиссер: Мигель Гомеш
Продюссер: Сандро Агиляр, Луиш Урбано, Марен Эд
Сценарий: Мигел Гомиш, Мариана Рикардо

Премьера в мире: 14 февраля 2012

возраст зрителям, достигшим 16 лет


В ролях: Тереза Мадруга, Лаура Соверал, Ана Морейра, Энрике Эспирито Санто, Карлотту Котта, Изабель Муньос Кардосо, Иво Мюллер, Мануэль Мескита

Описание: Умирая, эксцентричная старушка просит двух соседок разыскать некоего мужчину. Женщины находят незнакомца, который рассказывает им трогательную историю их любви в колониальной Африке и их преступления, после которого они больше никогда не виделись.

Доп. информация: Сохранены оригинальные чаптеры
Субтитры: Russian, English

Качество: BDRip 720p
Формат: MKV
Видео кодек: H.264
Аудио кодек: AC3
Видео: 960 x 720 (1.333) at 24.000 fps AVC at 4650 Кбит/сек
Аудио#1: AC-3 at 384 Кбит/сек 6 каналов, 48,0 КГц RUS
Аудио#2: AC-3 at 640 Кбит/сек 6 каналов, 48,0 КГц PORT
Релиз от:




Общее
Уникальный идентификатор : 240396957552801937217579624359841518198 (0xB4DAC518C27AE6338B7232CFC3E85276)
Полное имя : D:ФильмыTabu.2012.P.BDRip.720p.mkv
Формат : Matroska
Версия формата : Version 2
Размер файла : 4,68 Гбайт
Продолжительность : 1 ч. 58 м.
Общий поток : 5674 Кбит/сек
Дата кодирования : UTC 2013-01-23 07:49:38
Программа кодирования : mkvmerge v5.2.0 ('I can't explain') built on Dec 18 2011 18:12:03
Библиотека кодирования : libebml v1.2.3 + libmatroska v1.3.0

Видео
Идентификатор : 1
Формат : AVC
Формат/Информация : Advanced Video Codec
Профиль формата : High@L4.1
Параметр CABAC формата : Да
Параметр ReFrames формата : 12 кадров
Режим смешивания : Header stripping
Идентификатор кодека : V_MPEG4/ISO/AVC
Продолжительность : 1 ч. 58 м.
Битрейт : 4650 Кбит/сек
Ширина : 960 пикселей
Высота : 720 пикселей
Соотношение сторон : 4:3
Режим частоты кадров : Постоянный
Частота кадров : 24,000 кадра/сек
Цветовое пространство : YUV
Субдискретизация насыщенности : 4:2:0
Битовая глубина : 8 бит
Тип развёртки : Прогрессивная
Бит/(Пиксели*Кадры) : 0.280
Размер потока : 3,74 Гбайт (80%)
Библиотека кодирования : x264 core 129 r2230 1cffe9f
Настройки программы : cabac=1 / ref=12 / deblock=1:-3:-3 / analyse=0x3:0x113 / me=umh / subme=10 / psy=1 / psy_rd=1.00:0.00 / mixed_ref=1 / me_range=32 / chroma_me=1 / trellis=2 / 8x8dct=1 / cqm=0 / deadzone=21,11 / fast_pskip=1 / chroma_qp_offset=-2 / threads=16 / lookahead_threads=2 / sliced_threads=0 / nr=0 / decimate=1 / interlaced=0 / bluray_compat=0 / constrained_intra=0 / bframes=12 / b_pyramid=2 / b_adapt=1 / b_bias=0 / direct=1 / weightb=1 / open_gop=0 / weightp=2 / keyint=240 / keyint_min=24 / scenecut=40 / intra_refresh=0 / rc_lookahead=200 / rc=2pass / mbtree=1 / bitrate=4650 / ratetol=1.0 / qcomp=0.60 / qpmin=0 / qpmax=69 / qpstep=4 / cplxblur=20.0 / qblur=0.5 / vbv_maxrate=50000 / vbv_bufsize=50000 / nal_hrd=none / ip_ratio=1.40 / aq=1:0.80
Язык : English
Default : Да
Forced : Нет

Аудио #1
Идентификатор : 2
Формат : AC-3
Формат/Информация : Audio Coding 3
Расширение режима : CM (complete main)
Параметр Endianness формата : Big
Режим смешивания : Header stripping
Идентификатор кодека : A_AC3
Продолжительность : 1 ч. 58 м.
Вид битрейта : Постоянный
Битрейт : 384 Кбит/сек
Каналы : 6 каналов
Расположение каналов : Front: L C R, Side: L R, LFE
Частота : 48,0 КГц
Битовая глубина : 16 бит
Метод сжатия : С потерями
Размер потока : 324 Мбайт (7%)
Язык : Russian
Default : Да
Forced : Да

Аудио #2
Идентификатор : 3
Формат : AC-3
Формат/Информация : Audio Coding 3
Расширение режима : CM (complete main)
Параметр Endianness формата : Big
Режим смешивания : Header stripping
Идентификатор кодека : A_AC3
Продолжительность : 1 ч. 58 м.
Вид битрейта : Постоянный
Битрейт : 640 Кбит/сек
Каналы : 6 каналов
Расположение каналов : Front: L C R, Side: L R, LFE
Частота : 48,0 КГц
Битовая глубина : 16 бит
Метод сжатия : С потерями
Размер потока : 541 Мбайт (11%)
Язык : Portuguese
Default : Нет
Forced : Нет

Текст #1
Идентификатор : 4
Формат : UTF-8
Идентификатор кодека : S_TEXT/UTF8
Идентификатор кодека/Информация : UTF-8 Plain Text
Язык : Russian
Default : Нет
Forced : Нет

Текст #2
Идентификатор : 5
Формат : UTF-8
Идентификатор кодека : S_TEXT/UTF8
Идентификатор кодека/Информация : UTF-8 Plain Text
Язык : English
Default : Нет
Forced : Нет

Текст #3
Идентификатор : 6
Формат : VobSub
Режим смешивания : zlib
Идентификатор кодека : S_VOBSUB
Идентификатор кодека/Информация : The same subtitle format used on DVDs
Язык : English
Default : Нет
Forced : Нет

Меню
00:00:00.000 : en:00:00:00.000
00:06:14.542 : en:00:06:14.542
00:13:46.708 : en:00:13:46.708
00:20:44.292 : en:00:20:44.292
00:26:12.125 : en:00:26:12.125
00:32:41.500 : en:00:32:41.500
00:40:40.000 : en:00:40:40.000
00:45:21.667 : en:00:45:21.667
00:51:59.292 : en:00:51:59.292
00:59:27.625 : en:00:59:27.625
01:06:04.500 : en:01:06:04.500
01:12:08.333 : en:01:12:08.333
01:18:09.500 : en:01:18:09.500
01:25:06.625 : en:01:25:06.625
01:31:39.750 : en:01:31:39.750
01:37:29.500 : en:01:37:29.500
01:43:53.417 : en:01:43:53.417
01:51:00.000 : en:01:51:00.000


Табу скачать торрент


pb.wtf



Скачать Табу через торрент http://pic.kartinco.top/images/1/a1onb3cttm.jpg Скачать фильм Табу через торрент бесплантно в хорошем качестве Описание: Умирая, эксцентричная старушка просит двух соседок разыскать некоего мужчину. Женщины находят незнакомца, который рассказывает им ... 5 10 1
Info! Золотая раздача, скачанное не засчитывается.
Торрент: Зарегистрирован [2013-01-24 02:01] · скачан: 72 раз
Статус: √ проверено
Размер: 4.68 GB
Как cкачать? Как скачать Табу через торрент | qTorrent

% Раздел Тема Автор DL S | L
Порно фильмы без сюжета [ 3.5 GB ] Буржуазия без табу / Bourgeoises sans tabou [2017 All Sex Anal Oral Facial Group Sex DP MILF Mature WEB-DLRip] sheker187 Скачать
1 | 0
Зарубежные сериалы [ 7.6 GB ] Табу / Taboo / Сезон: 1 / Серии: 1-8 из 8 [2017 BDRip] [MVO] killermax2013 Скачать
1 | 0
Зарубежные сериалы [ 5.14 GB ] Табу / Taboo / Сезон: 1 / Серии: 1-8 из 8 [2017 WEB-DLRip] [MVO] killermax2013 Скачать
1 | 0
Зарубежные сериалы [ 7.46 GB ] Табу / Taboo / Сезон 1 / Серии 1-8 из 8 [2017 WEB-DLRip-AVC] многоголосый [NewStudio] от ExKinoRay Enigma2010 Скачать
1 | 0
T Фильмы (мультфильмы) cо спонсором показа (Новинки AVI/MKV) [ 1.37 GB ] Табу Тегерана / Tehran Taboo [2017 Мультфильм WEB-DLRip] MVO ["Синема УС"] bober100 Скачать
1 | 0
Зарубежные сериалы [ 19.88 GB ] Табу / Taboo / Сезон: 1 / Серии: 8 из 8 [2017 WEB-DL 1080p] MVO Ворон Скачать
1 | 0
Фильмы с украинским озвучиванием [ 4.4 GB ] Табу / Taboo / Сезон: 1 / Серии: 1-8 из 8 [2017 WEB-DLRip] [Ukr MVO] killermax2013 Скачать
1 | 0
Отключить всю рекламу на сайте
    Дорогой пользователь! Огромная просьба, поблагодарите релизера, оцените раздачу и оставьте свои комментарий, если Вы скачали Табу через торрент бесплатно! Внесите свою лепту в развитие PiratBit!
    Комментировать посты могут только пользователи прошедшие не сложную регистрацию
    Показать сообщения:    

    Табу через торрент
    Скачать бесплатно Табу
    Табу скачать торрент
    Табу смотреть онлайн
    Cкачать фильм Табу бесплатно
    Табу скачать торрент в хорошем качестве
    Табу смотреть онлайн бесплатно в хорошем качестве


    Вы не можете начинать темы
    Вы не можете отвечать на сообщения
    Вы не можете редактировать свои сообщения
    Вы не можете удалять свои сообщения
    Вы не можете голосовать в опросах
    Вы не можете прикреплять файлы к сообщениям
    Вы можете скачивать файлы