1 сезон

1 сезон

iTunes

1

КиноПоиск HD

Кинопоиск HD

iTunes

13

1 сезон

RePack

30

Ultimate

ВАЖНО

ИГРА 18+

pack

RePack

MK11
pack

Легкие деньги

RePack

jed

RePack

fifa19

RePack

RDR2

RePack

NEED FOR SPEED™ PAYBACK

4 сезон

9 сезон

Бесстыжие 9 сезон

Все сериалы

все сериалы на PB.wtf

RePack

FAR CRY 5
  
Magnet ссылка

Братство волка / Le Pacte Des Loups (Кристоф Ганс) [2001 г., Ужасы, триллер, детектив, BDRip, MVO, лицензия] pb.wtf

Братство волка через торрент pb.wtf

Раздают: 1 [ 0.9 KB/s ]
Размер: 1.46 GB | Добавлен: 8 лет 2 мес. назад | Торрент скачан:955 раз
Скачать  

26-01-2013 08:23 Братство волка Скачать торрент  


Братство волка / Le Pacte Des Loups
Режиссерская версия
Год выпуска: 2001
Страна: Франция
Жанр: Ужасы, триллер, детектив
Продолжительность: 02:30:00
Перевод: Профессиональный многоголосый, Лицензия

Режиссер: Кристоф Ганс

Бюджет: $29 000 000
Премьера в мире: 31 января 2001



В ролях: Самюэль Ле Биан, Венсан Кассель, Эмили Декьенн, Моника Беллуччи, Джереми Ренье, Марк Дакаскос, Жан Янн, Жан-Франсуа Стевенен, Жак Перрин, Эдит Скоб

Описание: Фильм основан на реальной истории огромного волка-мутанта, терроризировавшего Францию в середине XVIII века. Чудовище несколько месяцев нападало на женщин и детей, и ни один из оставшихся в живых людей не смог ни причинить ему вреда, ни даже как следует разглядеть его. По личному приказу короля его специальный посланник, совмещающий в одном лице таланты биолога, разведчика и философа, прибывает на место трагедии. После того, как волк был пойман и убит, чучело его провезли по всем французским городам. Простые французские крестьяне поверили в эту историю. Но только сегодня мы узнаем, что же на самом деле произошло в XVIII веке в маленькой французской провинции... "Братство Волка" — самый высокобюджетный французский фильм за последние десять лет, и деньги были потрачены не зря — спецэффекты, костюмы, звук и необыкновенная по красоте картинка не уступают, а кое где и превосходят голливудские боевики. Фильм также собрал самую большую кассу в кинотеатрах, оставив далеко позади себя фильмы признанного "французского Джима Кэмерона" — Люка Бессона.

Качество: BDRip [Blu-Ray Remux (1080p)]
Формат: AVI
Видео кодек: XviD
Аудио кодек: AC3
Видео: 720x304 (2.37:1), 23.976 fps, XviD build 64 ~1192 kbps avg, 0.23 bit/pixel
Аудио: 48 kHz, AC3 Dolby Digital, 3/2 (L,C,R,l,r) + LFE ch, ~192 kbps
Доп. информация: Режиссёрская версия не выходила в дубляже, поэтому перевод многоголосый


Автор рипа: Dean24
скриншот  скриншот  
скриншот  скриншот  
скриншот  скриншот  




Общее:
Полное имя: D:Для сайтаRip'sbratstvo_volka_rezhisserskaya_versiya_BDRip.avi
Формат: AVI
Формат/Информация: Audio Video Interleave
Размер файла: 1,46 Гбайт
Продолжительность: 2 ч. 30 м.
Общий поток: 1393 Кбит/сек
Программа кодирования: VirtualDubMod 1.5.10.3 | www.virtualdub-fr.org || (build 2550/release)
Библиотека кодирования: VirtualDubMod build 2550/release

Видео:
Идентификатор: 0
Формат: MPEG-4 Visual
Профиль формата: Advanced Simple@L5
Параметр BVOP формата: 2
Параметр QPel формата: Нет
Параметр GMC формата: Без точки перехода
Параметр матрицы формата: Default (H.263)
Идентификатор кодека: XVID
Идентификатор кодека/Подсказка: XviD
Продолжительность: 2 ч. 30 м.
Битрейт: 1192 Кбит/сек
Ширина: 720 пикс.
Высота: 304 пикс.
Соотношение сторон: 2,35:1
Частота кадров: 23,976 кадр/сек
Цветовое пространство: YUV
Подвыборка цветности: 4:2:0
Битовая глубина: 8 бит
Тип развёртки: Прогрессивная
Метод сжатия: С потерями
Бит/(Пиксели*Кадры): 0.227
Размер потока: 1,25 Гбайт (86%)
Библиотека кодирования: XviD 64

Аудио:
Идентификатор: 1
Формат: AC-3
Формат/Информация: Audio Coding 3
Расширение режима: CM (complete main)
Идентификатор кодека: 2000
Продолжительность: 2 ч. 30 м.
Вид битрейта: Постоянный
Битрейт: 192 Кбит/сек
Каналы: 6 каналов
Расположение каналов: Front: L C R, Side: L R, LFE
Частота: 48,0 КГц
Битовая глубина: 16 бит
Метод сжатия: С потерями
Размер потока: 206 Мбайт (14%)
Выравнивание: Разделение по промежуткам
Продолжительность промежутка: 42 мс. (1,00 видеокадр)
Время предзагрузки промежутка: 500 ms
pb.wtf



Скачать Братство волка через торрент http://i52.fastpic.ru/big/2013/0126/4f/6408a190e4073d6ac0662e8b7264874f.png Скачать фильм Братство волка через торрент бесплантно в хорошем качестве Описание: Фильм основан на реальной истории огромного волка-мутанта, терроризировавшего Францию в середине XVIII века. Чудовище несколько ... 10 10 15
Info! Золотая раздача, скачанное не засчитывается.
Торрент: Зарегистрирован [2013-01-26 08:38] · скачан: 955 раз
Статус: √ проверено
Размер: 1.46 GB
Как cкачать? Как скачать Братство волка через торрент | UTorrent

% Раздел Тема Автор DL S | L
Фильмы (Blu-ray, BD-Remux, HDDVD) [ 42.23 GB ] Братство волка / Le Pacte des loups [2001 Blu-ray EUR 1080p] DUB [] bober100 Скачать
1 | 0
Фильмы [HD 720p, 1080p] (Хороший звук DUB, MVO) [ 7.96 GB ] Братство волка / Le Pacte des loups [2001 BDRip 720p ] -=DANTE=- Скачать
1 | 0
Фильмы 2001-2005 [ 2.91 GB ] Братство волка / Le Pacte Des Loups [2001 история HDDVDRip] [Режиссерская версия / Director's cut] -=BIGBOSS=- Скачать
1 | 0

28-11-2019 20:33  

Отключить всю рекламу на сайте

26-01-2013 09:37 Братство волка Скачать торрент  

классный фильм!!!!!!!!!!!!!!pb.wtf



26-01-2013 09:43 Братство волка Скачать торрент  

Вот это ФИЛЬМИЩЕ, очень жаль что Кристоф Ганс не снимал Сайлент Хилл 2. А этот фильм, просто обязателен к просмотру!pb.wtf



26-01-2013 10:39 Братство волка Скачать торрент  

Да,фильмак бомба! pb.wtf



02-10-2017 15:10 Братство волка Скачать торрент  

фильм достоен просмотраpb.wtf



21-07-2018 11:45 Братство волка Скачать торрент  

Kizdun007 писал(а):

Вот это ФИЛЬМИЩЕ, очень жаль что Кристоф Ганс не снимал Сайлент Хилл 2. А этот фильм, просто обязателен к просмотру!

????pb.wtf



    Дорогой пользователь! Огромная просьба, поблагодарите релизера, оцените раздачу и оставьте свои комментарий, если Вы скачали Братство волка через торрент бесплатно! Внесите свою лепту в развитие PiratBit!
    Комментировать посты могут только пользователи прошедшие не сложную регистрацию
    Показать сообщения:    

    Братство волка через торрент
    Скачать бесплатно Братство волка
    Братство волка скачать торрент
    Братство волка смотреть онлайн
    Cкачать фильм Братство волка бесплатно
    Братство волка скачать торрент в хорошем качестве
    Братство волка смотреть онлайн бесплатно в хорошем качестве


    Вы не можете начинать темы
    Вы не можете отвечать на сообщения
    Вы не можете редактировать свои сообщения
    Вы не можете удалять свои сообщения
    Вы не можете голосовать в опросах
    Вы не можете прикреплять файлы к сообщениям
    Вы можете скачивать файлы