Достать ножи: Стеклянная луковица

MVO

Добыча

Дубляж

Уэнсдэй

1 сезон

Тор

Дубляж

13 клиническая

1 сезон

Жестокая ночь

MVO

Одни из нас

1 сезон

Deluxe

pack

Рекомендуем

30

Пиратка

ВАЖНО

ВАЖНО

Ghostwire

Пиратка

jed

RePack

nioh2

RePack

RDR2

RePack

NEED FOR SPEED™ PAYBACK

RePack

скачать торрент

Кинопоиск HD

Острые козырьки 6 сезон

6 сезон

FAR CRY 6

RePack

скачать торрент

Лицензия

скачать торрент

MVO

1

1 сезон

скачать торрент

1 сезон

скачать торрент

Лицензия

  

Тело Дженнифер (Расширенная версия) / Jennifer's Body (Unrated Edition) (Карин Кусама) [2009 г., ужасы, комедия, BDRip 720p, Дубляж + Оригинал отдельно]

Тело Дженнифер через торрент pb.wtf

Размер: 5.75 GB | Добавлен: 10 лет назад | Торрент скачан:64 раза
Смотреть онлайн | Скачать | Поддержите нас   

27-01-2013 17:54 Тело Дженнифер Скачать торрент  

Тело Дженнифер / Jennifer's Body

Год выпуска: 2009
Страна: США
Жанр: ужасы, комедия
Продолжительность: 01:47:29
Перевод: Дубляж + Оригинал отдельно
Язык субтитров: 1. Русские
Язык субтитров: 2. Английские

Режиссер: Карин Кусама
Продюссер: Дэн Дубицки, Мэйсон Новик, Джейсон Райтман
Сценарий: Диабло Коуди

Бюджет: $16 000 000



В ролях: Меган Фокс, Аманда Сайфред, Джонни Симмонс, Адам Броди, Сэл Кортез, Райан Ливайн, Хуан Ридингер, Колин Аски, Крис Прэтт, Джуно Радделл, Кайл Галлнер, Джош Эмерсон, Дж.К. Симмонс, Эми Седарис, Синтия Стивенсон, Николь Ледюк, Аман Джоал, Дэн Йоффре, Кэндас Черчилль, Кэрри Гензел, Эмма Галлелло, Меган Чарпентье, Джереми Шутце, Валери Тиан, Эмили Теннант, Карисса Тьюнс, Ив Харлоу, Майкл Брок, Женевьев Бюкнер, Адриан Хью, Габриель Роз, Майкл Бин, Билл Фагербакки, Мэрилин Норри, Лукас МакФадден, Зои Лалиберте, Челси Смит, Уитни Чоу, Майкл Орстад, Ронни Робинсон, Эд Эндерс, Роксанна Вонг, Дайан Дутра, Майя Тоус

Описание: Захолустный американский городок замер от ужаса: в главную героиню - участницу команды болельщиц - вселился бес, и она, по никому не известным причинам, убивает парней. На хрупкие плечи её лучшей подруги ложится непосильная ноша - она должна найти способ остановить адски разбушевавшуюся убийцу.

Качество: BDRip 720p
Формат: MKV
Видео кодек: H.26x
Аудио кодек: AC3
Видео: 1280x692, 23.976 fps, MPEG-4 (H.264) 4750 Kbit/s, 0.224 bit/pixel
Аудио#1: AC3, 48,0 kHz, 6 ch, 640 kbps (Русский дублированный)
Аудио#2: DTS, 48,0 kHz, 6 ch, 755 kbps (Русский дублированный) отдельно
Аудио#3: DTS, 48,0 kHz, 6 ch, 1509 kbps (Оригинальный английский) отдельно




Общее
Уникальный идентификатор : 221386750284137026521600396233513273425 (0xA68D8983BAB4A3A5B0830BD1CECE8851)
Полное имя : D:ФильмыJennifer's Body(Unrated Edition)2009.BDRip.720pJennifer's Body(Unrated Edition)2009.BDRip.720p.mkv
Формат : Matroska
Версия формата : Version 4 / Version 2
Размер файла : 4,04 Гбайт
Продолжительность : 1 ч. 47 м.
Общий поток : 5385 Кбит/сек
Название фильма : Jennifer's Body (Unrated) / 2009 / BDRip 720p
Дата кодирования : UTC 2010-02-22 21:41:31
Программа кодирования : mkvmerge v5.9.0 ('On The Loose') built on Dec 9 2012 15:37:01
Библиотека кодирования : libebml v1.3.0 + libmatroska v1.4.0

Видео
Идентификатор : 1
Формат : AVC
Формат/Информация : Advanced Video Codec
Профиль формата : [email protected]
Параметр CABAC формата : Да
Параметр ReFrames формата : 9 кадров
Идентификатор кодека : V_MPEG4/ISO/AVC
Продолжительность : 1 ч. 47 м.
Битрейт : 4750 Кбит/сек
Ширина : 1280 пикселей
Высота : 692 пикселя
Соотношение сторон : 1,850
Частота кадров : 23,976 кадра/сек
Цветовое пространство : YUV
Субдискретизация насыщенности : 4:2:0
Битовая глубина : 8 бит
Тип развёртки : Прогрессивная
Бит/(Пиксели*Кадры) : 0.224
Размер потока : 3,48 Гбайт (86%)
Библиотека кодирования : x264 core 129 r2230 1cffe9f
Настройки программы : cabac=1 / ref=9 / deblock=1:-1:-1 / analyse=0x3:0x113 / me=umh / subme=9 / psy=1 / psy_rd=1.00:0.15 / mixed_ref=1 / me_range=24 / chroma_me=1 / trellis=2 / 8x8dct=1 / cqm=0 / deadzone=21,11 / fast_pskip=0 / chroma_qp_offset=-3 / threads=6 / lookahead_threads=1 / sliced_threads=0 / nr=0 / decimate=0 / interlaced=0 / bluray_compat=0 / constrained_intra=0 / bframes=10 / b_pyramid=2 / b_adapt=2 / b_bias=0 / direct=3 / weightb=1 / open_gop=0 / weightp=2 / keyint=230 / keyint_min=23 / scenecut=40 / intra_refresh=0 / rc=2pass / mbtree=0 / bitrate=4750 / ratetol=1.0 / qcomp=0.60 / qpmin=0 / qpmax=69 / qpstep=4 / cplxblur=20.0 / qblur=0.5 / ip_ratio=1.40 / pb_ratio=1.30 / aq=1:1.00
Язык : English
Default : Да
Forced : Нет

Аудио
Идентификатор : 2
Формат : AC-3
Формат/Информация : Audio Coding 3
Расширение режима : CM (complete main)
Идентификатор кодека : A_AC3
Продолжительность : 1 ч. 47 м.
Вид битрейта : Постоянный
Битрейт : 640 Кбит/сек
Каналы : 6 каналов
Расположение каналов : Front: L C R, Side: L R, LFE
Частота : 48,0 КГц
Битовая глубина : 16 бит
Метод сжатия : С потерями
Размер потока : 492 Мбайт (12%)
Заголовок : Дубляж
Язык : Russian
Default : Да
Forced : Нет

Текст #1
Идентификатор : 3
Формат : UTF-8
Идентификатор кодека : S_TEXT/UTF8
Идентификатор кодека/Информация : UTF-8 Plain Text
Заголовок : русский
Язык : Russian
Default : Нет
Forced : Нет

Текст #2
Идентификатор : 4
Формат : UTF-8
Идентификатор кодека : S_TEXT/UTF8
Идентификатор кодека/Информация : UTF-8 Plain Text
Заголовок : английский
Default : Нет
Forced : Нет


Тело Дженнифер скачать торрент





Скачать Тело Дженнифер через торрент https://pic1.kartinco.top/images/111/88ngfypt1d.png Скачать, смотреть онлайн Тело Дженнифер бесплантно в хорошем качестве Описание: Захолустный американский городок замер от ужаса: в главную героиню - участницу команды болельщиц - вселился бес, и она, по никому ... 8 10 2
Info! Золотая раздача, скачанное не засчитывается.
Торрент: Зарегистрирован [2013-01-27 17:54] · скачан: 64 раз
Статус: √ проверено
Размер: 5.75 GB
Как cкачать? Как скачать Тело Дженнифер через торрент | UTorrent

% Раздел Тема Автор DL S | L
Фильмы 2009 [ 744 MB ] Тело Дженнифер / Jennifer's Body | DUB | HDRip -=BIGBOSS=- Скачать
1 | 0

28-11-2019 20:33  


Отключить вcю реклaмy на сайте, в т.ч. и в плеере онлайн просмотра!

    Дорогой пользователь! Огромная просьба, поблагодарите релизера, оцените раздачу и оставьте свои комментарий, если Вы скачали Тело Дженнифер через торрент бесплатно!!
    Комментировать посты могут только пользователи прошедшие не сложную регистрацию
    Показать сообщения:    


    Тело Дженнифер через торрент
    Скачать бесплатно Тело Дженнифер
    Тело Дженнифер скачать торрент
    Тело Дженнифер смотреть онлайн
    Cкачать фильм Тело Дженнифер бесплатно
    Тело Дженнифер скачать торрент в хорошем качестве
    Тело Дженнифер смотреть онлайн бесплатно в хорошем качестве
    Вы не можете начинать темы
    Вы не можете отвечать на сообщения
    Вы не можете редактировать свои сообщения
    Вы не можете удалять свои сообщения
    Вы не можете голосовать в опросах
    Вы не можете прикреплять файлы к сообщениям
    Вы можете скачивать файлы
    Тело Дженнифер / Jennifer's Body [2009 г., ужасы, комедия, BDRip 720p, Дубляж + Оригинал отдельно] смотреть онлайн, скачать торрент picoco.icu