Мега распродажа FORZA HORIZON 4 ULTIMATE+ВСЕ DLC+ОНЛАЙН всего за 499р. 349 руб. (супер цена). Внимание количество ограничено!!!

Лицензия

30

iTunes

мы

iTunes

1

1 сезон

Чернобыль

1 сезон

Ральф против интернета

MVO

Покемон. Детектив Пикачу

8 сезон

Игра престолов

iTunes

1+1

ИГРА 18+

pack

ВАЖНО

!!Акция!!

Alien_RageХит недели

RePack

Resident Evil 21
pack

RePack

Metro:Exodus

!!Акция!!

Alien_Rage

RePack

fifa19

RePack

Assassins Creed: Odyssey

RePack

NEED FOR SPEED™ PAYBACK

3 сезон

9 сезон

Бесстыжие 9 сезон

Все сериалы

все сериалы на PB.wtf

RePack

FAR CRY 5
Ребята, катастрофически не хватает 2730р. для оплаты серверов за МАЙ (всвязи с блокировками трафик упал в 3 раза), 1-2р., выручайте.
  

Спуск 2 / The Descent: Part 2 (Джон Харрис) [2009 г., ужасы, триллер, приключения, DVDRip, DUB] pb.wtf

Спуск 2 через торрент pb.wtf

Размер: 1.46 GB | Добавлен: 6 лет 4 мес. назад | Торрент скачан:301 раз
Скачать  

28-01-2013 05:46 Спуск 2 Скачать торрент  

Спуск 2 / The Descent: Part 2

Год выпуска: 2009
Страна: Великобритания
Жанр: ужасы, триллер, приключения
Продолжительность: 01:33:46
Перевод: Дубляж
Субтитры: Отсутствуют

Режиссер: Джон Харрис
Продюссер: Кристиан Колсон, Ивана Маккиннон, Франсуа Ивернель
Сценарий: Джеймс МакКарти, Дж. Блэйксон, Джеймс Уоткинс

Мировой рейтинг IMDB 5.80 (17 529)


В ролях: Шона МакДональд, Натали Джексон Мендоса, Майкл Дж. Рейнольдс, Джессика Уильямс, Дуглас Ходж, Джошуа Даллас, Анна Скеллерн, Гэвэн О’Херлихи, Кристен Каммингс, Даг Баллард, Татьяна Шитова, Олег Форостенко, Ольга Зубкова, Александр Гаврилин, Дмитрий Курта

Описание: Захватывающая экспедиция вглубь горных пещер оборачивается для компании подруг ужасной трагедией. Выжить удается лишь одной девушке. Раненая и обезумевшая от страха, она обращается в местную полицию.

Качество: DVDRip
Формат: AVI
Видео кодек: XviD
Аудио кодек: AC3
Видео: 720x304 (2.37:1), 23.976 fps, XviD build 50 ~1828 kbps avg, 0.35 bit/pixel
Аудио#1: 48 kHz, AC3 Dolby Digital, 3/2 (L,C,R,l,r) + LFE ch, ~384 kbps
скриншот   скриншот   скриншот   скриншот   скриншот   скриншот  

Общее
Полное имя : F:ЗакачкиSpusk.2.2009.DVDRip.avi
Формат : AVI
Формат/Информация : Audio Video Interleave
Размер файла : 1,46 Гбайт
Продолжительность : 1 ч. 33 м.
Общий поток : 2222 Кбит/сек
Программа кодирования : VirtualDubMod 1.5.10.3 | www.virtualdub-fr.org || (build 2550/release)
Библиотека кодирования : VirtualDubMod build 2550/release

Видео
Идентификатор : 0
Формат : MPEG-4 Visual
Профиль формата : Advanced Simple@L5
Параметр BVOP формата : 2
Параметр QPel формата : Нет
Параметр GMC формата : Без точки перехода
Параметр матрицы формата : Default (H.263)
Идентификатор кодека : XVID
Идентификатор кодека/Подсказка : XviD
Продолжительность : 1 ч. 33 м.
Битрейт : 1828 Кбит/сек
Ширина : 720 пикселей
Высота : 304 пикселя
Соотношение сторон : 2,35:1
Частота кадров : 23,976 кадра/сек
Цветовое пространство : YUV
Субдискретизация насыщенности : 4:2:0
Битовая глубина : 8 бит
Тип развёртки : Прогрессивная
Метод сжатия : С потерями
Бит/(Пиксели*Кадры) : 0.348
Размер потока : 1,20 Гбайт (82%)
Библиотека кодирования : XviD 1.2.1 (UTC 2008-12-04)

Аудио
Идентификатор : 1
Формат : AC-3
Формат/Информация : Audio Coding 3
Расширение режима : CM (complete main)
Идентификатор кодека : 2000
Продолжительность : 1 ч. 33 м.
Вид битрейта : Постоянный
Битрейт : 384 Кбит/сек
Каналы : 6 каналов
Расположение каналов : Front: L C R, Side: L R, LFE
Частота : 48,0 КГц
Битовая глубина : 16 бит
Метод сжатия : С потерями
Размер потока : 258 Мбайт (17%)
Выравнивание : Разделение по промежуткам
Продолжительность промежутка : 42 мс. (1,00 видеокадр)
Время предзагрузки промежутка : 500 мс.


Спуск 2 скачать торрент


pb.wtf



Скачать Спуск 2 через торрент http://i51.fastpic.ru/big/2013/0127/03/49ed5b1deb688cb798b50f4dc9950703.jpg Скачать фильм Спуск 2 через торрент бесплантно в хорошем качестве Описание: Захватывающая экспедиция вглубь горных пещер оборачивается для компании подруг ужасной трагедией. Выжить удается лишь одной ... 10 10 5
Info! Золотая раздача, скачанное не засчитывается.
Торрент: Зарегистрирован [2013-01-28 05:46] · скачан: 301 раз
Статус: √ проверено
Размер: 1.46 GB
Как cкачать? Как скачать Спуск 2 через торрент | qTorrent

% Раздел Тема Автор DL S | L
Фильмы (Blu-ray, BD-Remux, HDDVD) [ 20.57 GB ] Спуск 2 / The Descent: Part 2 [2009 BD Remux 1080p] DUB+AVO+2xMVO bober100 Скачать
1 | 0
T Релизы по Парсеру [Игры, Сериалы и Фильмы и другое...] [ 1.45 GB ] Спуск 2 / The Descent: Part 2 [2009 HDRip-AVC] Dub + DVO + Org + Sub Rus Eng sanekbest1 Скачать
2 | 0
Фильмы [HD 720p, 1080p] (Хороший звук DUB, MVO) [ 5.48 GB ] Спуск 2 / The Descent: Part 2 [2009 BDRip ] piloter Скачать
1 | 0
Фильмы 2009 [ 1.45 GB ] Спуск 2 / The Descent: Part 2 [2009 BDRip] -=BIGBOSS=- Скачать
1 | 0
Фильмы 2009 [ 1.37 GB ] Спуск 2 / The Descent: Part 2 [2009 DVDRip][ лицензия ] SD Скачать
1 | 0
Фильмы 2009 [ 744 MB ] Спуск 2 / The Descent: Part 2 HDRip / лицензия [2009 HDRip ] Reseption Скачать
1 | 0


>> Регистрируемся здесь <<






Отзывы и комментарии о схеме читаем и пишем здесь: ---> Отзывы и комментарии о схеме

Новые благодарочки в телеграм довольных пользователей:
скриншот   скриншот   скриншот   скриншот   скриншот

28-01-2013 13:25 Спуск 2 Скачать торрент  

Шикарная страшилка Хорошее продолжение первой части.pb.wtf



    Дорогой пользователь! Огромная просьба, поблагодарите релизера, оцените раздачу и оставьте свои комментарий, если Вы скачали Спуск 2 через торрент бесплатно! Внесите свою лепту в развитие PiratBit!
    Комментировать посты могут только пользователи прошедшие не сложную регистрацию
    Показать сообщения:    

    Спуск 2 через торрент
    Скачать бесплатно Спуск 2
    Спуск 2 скачать торрент
    Спуск 2 смотреть онлайн
    Cкачать фильм Спуск 2 бесплатно
    Спуск 2 скачать торрент в хорошем качестве
    Спуск 2 смотреть онлайн бесплатно в хорошем качестве


    Вы не можете начинать темы
    Вы не можете отвечать на сообщения
    Вы не можете редактировать свои сообщения
    Вы не можете удалять свои сообщения
    Вы не можете голосовать в опросах
    Вы не можете прикреплять файлы к сообщениям
    Вы можете скачивать файлы