Ссылка на приватное зеркало нашего сайта всего за 1$. Внимание количество ограничено!!!

2 сезон

iTunes

1 сезон

1

iTunes

iTunes

iTunes

1 сезон

RePack

30

ИГРА 18+

pack

ВАЖНО

!!Акция!!

Alien_RageХит недели

RePack

MK11
pack

Забери бонус

RePack

jed

!!Акция!!

Alien_Rage

RePack

fifa19

RePack

Assassins Creed: Odyssey

RePack

NEED FOR SPEED™ PAYBACK

4 сезон

9 сезон

Бесстыжие 9 сезон

Все сериалы

все сериалы на PB.wtf

RePack

FAR CRY 5
  

Том и Джерри: Полет на Марс / Tom and Jerry Blast Off to Mars! (Билл Копп) [2005 г., Мультфильм, фантастика, комедия, семейный, BDRip, MVO + Оригинал] pb.wtf

Том и Джерри: Полет на Марс через торрент pb.wtf

Размер: 1.46 GB | Добавлен: 7 лет 8 мес. назад | Торрент скачан:798 раз
Скачать  

28-01-2013 08:54 Том и Джерри: Полет на Марс Скачать торрент  


Том и Джерри: Полет на Марс / Tom and Jerry Blast Off to Mars!
Год выпуска: 2005
Страна: США
Жанр: Мультфильм, фантастика, комедия, семейный
Продолжительность: 01:14:26
Перевод: Профессиональный многоголосый + Оригинал

Режиссер: Билл Копп

Премьера в мире: 25 марта 2005



В ролях: Джефф Беннетт, Кори Бертон, Кэтрин Фиоре, Брэд Гэррет, Джесс Харнелл, Том Кенни, Билл Копп, Роб Полсен, Фрэнк Уэлкер, Билли Уэст

Описание: Выходит, что для своих погонь и проказ легендарные Том и Джерри уже использовали все возможные места на нашей старушке-Земле; и теперь забавные зверушки решают совершить вояж наМарс, чтобы повеселиться там от души! Вот, правда, марсиане оказались мелковаты: крошечные гуманоиды посчитали Тома свирепым галактическим монстром и решили расправиться с беднягой. Марс атакует! А в это время маленький хитрый Джерри был по ошибке признан возвратившимся после долгого отсутствия космическим вождем марсиан. Смогут ли мышонок и кот отложить на время свои разногласия, чтобы спасти Землю от инопланетного вторжения? Ведь для этого потребуются все девять жизней кота Тома!

Качество: BDRip [Blu-Ray Remux (1080p)]
Формат: AVI
Видео кодек: XviD
Аудио кодек: AC3
Видео: 704x400 (1.76:1), 23.976 fps, XviD build 64 ~1903 kbps avg, 0.28 bit/pixel
Аудио#1: 48 kHz, AC3 Dolby Digital, 3/2 (L,C,R,l,r) + LFE ch, ~448 kbps avg |RUS|
Аудио#2: 48 kHz, AC3 Dolby Digital, 3/2 (L,C,R,l,r) + LFE ch, ~448 kbps |ENG|


Автор рипа: Dean24
скриншот  скриншот  
скриншот  скриншот  
скриншот  скриншот  





Общее^
Полное имя: D:Для сайтаRip'stom_i_jerri_polet_na_mars_BDRip.avi
Формат: AVI
Формат/Информация: Audio Video Interleave
Размер файла: 1,46 Гбайт
Продолжительность: 1 ч. 14 м.
Общий поток: 2813 Кбит/сек
Программа кодирования: VirtualDubModRus 1.5.10.2 (build 2542/release)
Библиотека кодирования: VirtualDubMod build 2542/release

Видео:
Идентификатор: 0
Формат: MPEG-4 Visual
Профиль формата: Advanced Simple@L5
Параметр BVOP формата: 2
Параметр QPel формата: Нет
Параметр GMC формата: Без точки перехода
Параметр матрицы формата: Default (H.263)
Идентификатор кодека: XVID
Идентификатор кодека/Подсказка: XviD
Продолжительность: 1 ч. 14 м.
Битрейт: 1903 Кбит/сек
Ширина: 704 пикс.
Высота: 400 пикс.
Соотношение сторон: 16:9
Частота кадров: 23,976 кадр/сек
Цветовое пространство: YUV
Подвыборка цветности: 4:2:0
Битовая глубина: 8 бит
Тип развёртки: Прогрессивная
Метод сжатия: С потерями
Бит/(Пиксели*Кадры): 0.282
Размер потока: 1013 Мбайт (68%)
Библиотека кодирования: XviD 64

Аудио #1:
Идентификатор: 1
Формат: AC-3
Формат/Информация: Audio Coding 3
Расширение режима: CM (complete main)
Идентификатор кодека: 2000
Продолжительность: 1 ч. 14 м.
Вид битрейта: Постоянный
Битрейт: 448 Кбит/сек
Каналы: 6 каналов
Расположение каналов: Front: L C R, Side: L R, LFE
Частота: 48,0 КГц
Битовая глубина: 16 бит
Метод сжатия: С потерями
Размер потока: 239 Мбайт (16%)
Выравнивание: Разделение по промежуткам
Продолжительность промежутка: 42 мс. (1,00 видеокадр)
Время предзагрузки промежутка: 500 ms

Аудио #2:
Идентификатор: 2
Формат: AC-3
Формат/Информация: Audio Coding 3
Расширение режима: CM (complete main)
Идентификатор кодека: 2000
Продолжительность: 1 ч. 14 м.
Вид битрейта: Постоянный
Битрейт: 448 Кбит/сек
Каналы: 6 каналов
Расположение каналов: Front: L C R, Side: L R, LFE
Частота: 48,0 КГц
Битовая глубина: 16 бит
Метод сжатия: С потерями
Размер потока: 239 Мбайт (16%)
Выравнивание: Разделение по промежуткам
Продолжительность промежутка: 42 мс. (1,00 видеокадр)
Время предзагрузки промежутка: 500 ms

pb.wtf



Скачать Том и Джерри: Полет на Марс через торрент http://i51.fastpic.ru/big/2013/0128/4d/8ca124d8b2abfe934063cb652835724d.png Скачать фильм Том и Джерри: Полет на Марс через торрент бесплантно в хорошем качестве Описание: Выходит, что для своих погонь и проказ легендарные Том и Джерри уже использовали все возможные места на нашей старушке-Земле; и ... 9.5 10 10
Info! Золотая раздача, скачанное не засчитывается.
Торрент: Зарегистрирован [2013-01-28 08:54] · скачан: 798 раз
Статус: √ проверено
Размер: 1.46 GB
Как cкачать? Как скачать Том и Джерри: Полет на Марс через торрент | qTorrent

% Раздел Тема Автор DL S | L
Зарубежные Мультфильмы (BDRip 1080p, 720p, Blu-ray, BD-Remux) [ 5.78 GB ] Том и Джерри: Полет на Марс / Tom and Jerry Blast Off to Mars! [2005 Мультфильм BDRip 1080p] MVO+2xAVO bober100 Скачать
1 | 0

28-11-2019 20:33  

Отключить всю рекламу на сайте

    Дорогой пользователь! Огромная просьба, поблагодарите релизера, оцените раздачу и оставьте свои комментарий, если Вы скачали Том и Джерри: Полет на Марс через торрент бесплатно! Внесите свою лепту в развитие PiratBit!
    Комментировать посты могут только пользователи прошедшие не сложную регистрацию
    Показать сообщения:    

    Том и Джерри: Полет на Марс через торрент
    Скачать бесплатно Том и Джерри: Полет на Марс
    Том и Джерри: Полет на Марс скачать торрент
    Том и Джерри: Полет на Марс смотреть онлайн
    Cкачать фильм Том и Джерри: Полет на Марс бесплатно
    Том и Джерри: Полет на Марс скачать торрент в хорошем качестве
    Том и Джерри: Полет на Марс смотреть онлайн бесплатно в хорошем качестве


    Вы не можете начинать темы
    Вы не можете отвечать на сообщения
    Вы не можете редактировать свои сообщения
    Вы не можете удалять свои сообщения
    Вы не можете голосовать в опросах
    Вы не можете прикреплять файлы к сообщениям
    Вы можете скачивать файлы