Ссылка на приватное зеркало всего за 1$. Внимание количество ограничено!!!

iTunes

iTunes

iTunes

1

iTunes

iTunes

iTunes

iTunes

iTunes

30
pack

$ от Little Big

ВАЖНО

!!Акция!!

Alien_RageХит недели

RePack

Resident Evil 21

ИГРА 18+

pack

RePack

jed

!!Акция!!

Alien_Rage

RePack

fifa19

RePack

Assassins Creed: Odyssey

RePack

NEED FOR SPEED™ PAYBACK

4 сезон

9 сезон

Бесстыжие 9 сезон

Все сериалы

все сериалы на PB.wtf

RePack

FAR CRY 5
  

Черный дрозд / Deadfall (Штефан Руцовицки) [2012 г., триллер, драма, криминал, HDTVRip 720p, VO + Оригинал] pb.wtf

Черный дрозд через торрент pb.wtf

Размер: 4.6 GB | Добавлен: 7 лет 5 мес. назад | Торрент скачан:57 раз
Скачать  

28-01-2013 16:54 Черный дрозд Скачать торрент  

Черный дрозд / Deadfall

Год выпуска: 2012
Страна: США
Жанр: триллер, драма, криминал
Продолжительность: 01:34:36
Перевод: Любительский (одноголосый) + Оригинал
Cубтитры: английские

Режиссер: Штефан Руцовицки
Продюссер: Шелли Клиппард, Бен Косгров, Марк Кубан
Сценарий: Зэк Дин

Мировой рейтинг IMDB 6.30 (8 908)


В ролях: Эрик Бана, Оливия Уайлд, Чарли Ханнэм, Сисси Спейсек, Крис Кристофферсон, Джейсон Кавалье, Кевин Десфоссес, Ален Голем, Эллисон Грэхэм, Патрик Кертон

Описание: Эддисон и Лайза в бегах после неудачного ограбления казино. Бывший боксер Джей направляется домой, чтобы провести День Благодарения в кругу семьи. Судьба неумолимо сводит этих людей, чтобы они встретили Зло и вступили в схватку с ним.

Качество: HDTVRip 720p
Формат: MKV
Видео кодек: H.26x
Аудио кодек: AC3
Видео: 1280 x 546 (2.344) at 23.976 fps AVC at 6200 Кбит/сек
Аудио#1: AC-3 at 384 Кбит/сек 6 каналов, 48,0 КГц L1
Аудио#2: AC-3 at 384 Кбит/сек 6 каналов, 48,0 КГц ENG




Общее
Уникальный идентификатор : 202624003795437655305518863157322043731 (0x986FF6B0DB711FCC97CAEC20F9BBD153)
Полное имя : D:ФильмыCherniy.Drozd.2012.HDTVRip.720p.L1.mkv
Формат : Matroska
Версия формата : Version 2
Размер файла : 4,60 Гбайт
Продолжительность : 1 ч. 34 м.
Общий поток : 6966 Кбит/сек
Дата кодирования : UTC 2012-12-30 11:54:21
Программа кодирования : mkvmerge v5.0.1 ('Es ist Sommer') built on Oct 9 2011 11:55:43
Библиотека кодирования : libebml v1.2.2 + libmatroska v1.3.0

Видео
Идентификатор : 1
Формат : AVC
Формат/Информация : Advanced Video Codec
Профиль формата : High@L4.1
Параметр CABAC формата : Да
Параметр ReFrames формата : 11 кадров
Идентификатор кодека : V_MPEG4/ISO/AVC
Продолжительность : 1 ч. 34 м.
Битрейт : 6200 Кбит/сек
Ширина : 1280 пикселей
Высота : 546 пикселей
Соотношение сторон : 2,35:1
Частота кадров : 23,976 кадра/сек
Цветовое пространство : YUV
Субдискретизация насыщенности : 4:2:0
Битовая глубина : 8 бит
Тип развёртки : Прогрессивная
Бит/(Пиксели*Кадры) : 0.370
Размер потока : 4,00 Гбайт (87%)
Заголовок : Deadfall 2012 720p HDTV DD5.1 x264-CtrlHD
Библиотека кодирования : x264 core 129 r2230 1cffe9f
Настройки программы : cabac=1 / ref=11 / deblock=1:-3:-3 / analyse=0x3:0x113 / me=tesa / subme=10 / psy=1 / psy_rd=1.00:0.00 / mixed_ref=1 / me_range=24 / chroma_me=1 / trellis=2 / 8x8dct=1 / cqm=0 / deadzone=21,11 / fast_pskip=1 / chroma_qp_offset=-2 / threads=12 / lookahead_threads=2 / sliced_threads=0 / nr=0 / decimate=1 / interlaced=0 / bluray_compat=0 / constrained_intra=0 / bframes=8 / b_pyramid=2 / b_adapt=2 / b_bias=0 / direct=3 / weightb=1 / open_gop=0 / weightp=2 / keyint=250 / keyint_min=23 / scenecut=40 / intra_refresh=0 / rc_lookahead=60 / rc=2pass / mbtree=1 / bitrate=6200 / ratetol=1.0 / qcomp=0.75 / qpmin=0 / qpmax=69 / qpstep=4 / cplxblur=20.0 / qblur=0.5 / ip_ratio=1.40 / aq=1:0.80
Язык : English
Default : Да
Forced : Нет

Аудио #1
Идентификатор : 2
Формат : AC-3
Формат/Информация : Audio Coding 3
Расширение режима : CM (complete main)
Идентификатор кодека : A_AC3
Продолжительность : 1 ч. 34 м.
Вид битрейта : Постоянный
Битрейт : 384 Кбит/сек
Каналы : 6 каналов
Расположение каналов : Front: L C R, Side: L R, LFE
Частота : 48,0 КГц
Битовая глубина : 16 бит
Метод сжатия : С потерями
Размер потока : 260 Мбайт (6%)
Заголовок : VO den904 по переводу Janetta
Язык : Russian
Default : Да
Forced : Нет

Аудио #2
Идентификатор : 3
Формат : AC-3
Формат/Информация : Audio Coding 3
Расширение режима : CM (complete main)
Идентификатор кодека : A_AC3
Продолжительность : 1 ч. 34 м.
Вид битрейта : Постоянный
Битрейт : 384 Кбит/сек
Каналы : 6 каналов
Расположение каналов : Front: L C R, Side: L R, LFE
Частота : 48,0 КГц
Битовая глубина : 16 бит
Метод сжатия : С потерями
Размер потока : 260 Мбайт (6%)
Заголовок : AC3 5.1 @ 384kbps
Язык : English
Default : Нет
Forced : Нет

Текст
Идентификатор : 4
Формат : UTF-8
Идентификатор кодека : S_TEXT/UTF8
Идентификатор кодека/Информация : UTF-8 Plain Text
Язык : English
Default : Нет
Forced : Нет

Меню
00:00:00.000 : en:Chapter 1
00:08:19.000 : en:Chapter 2
00:16:24.000 : en:Chapter 3
00:25:03.000 : en:Chapter 4
00:34:38.000 : en:Chapter 5
00:44:27.000 : en:Chapter 6
00:53:07.000 : en:Chapter 7
01:02:10.000 : en:Chapter 8
01:09:33.000 : en:Chapter 9
01:17:18.000 : en:Chapter 10
01:28:35.000 : en:Chapter 11

Черный дрозд скачать торрент


pb.wtf



Скачать Черный дрозд через торрент http://pic.kartinco.top/images/1/umandbxidk.jpg Скачать фильм Черный дрозд через торрент бесплантно в хорошем качестве Описание: Эддисон и Лайза в бегах после неудачного ограбления казино. Бывший боксер Джей направляется домой, чтобы провести День ... 5 10 1
Info! Золотая раздача, скачанное не засчитывается.
Торрент: Зарегистрирован [2013-01-28 16:54] · скачан: 57 раз
Статус: T временная
Размер: 4.6 GB
Как cкачать? Как скачать Черный дрозд через торрент | qTorrent

% Раздел Тема Автор DL S | L
Фильмы (DVD фильмы) [ 3.63 GB ] Черный дрозд / Deadfall [2012 DVD5] R5 voovaz Скачать
1 | 0
Фильмы 2012 [ 1.45 GB ] Черный дрозд / Deadfall [2012 HDRip DUB лицензия] DEVI Скачать
1 | 0
Фильмы [HD 720p, 1080p] (Хороший звук DUB, MVO) [ 8.2 GB ] Черный дрозд / Deadfall [2012 BDRip 1080p DUB + Оригинал+Sub engrus] Trava-HD Скачать
1 | 0
Фильмы [HD 720p, 1080p] (Хороший звук DUB, MVO) [ 5.27 GB ] Черный дрозд / Deadfall [2012 BDRip 720p] diletant Скачать
1 | 0

28-11-2019 20:33  

Отключить всю рекламу на сайте

28-01-2013 17:11 Черный дрозд Скачать торрент  

блюр же есть уже от HDSpb.wtf



28-01-2013 17:39 Черный дрозд Скачать торрент  

avt83 писал(а):

блюр же есть уже от HDS

Пока не видел.pb.wtf



    Дорогой пользователь! Огромная просьба, поблагодарите релизера, оцените раздачу и оставьте свои комментарий, если Вы скачали Черный дрозд через торрент бесплатно! Внесите свою лепту в развитие PiratBit!
    Комментировать посты могут только пользователи прошедшие не сложную регистрацию
    Показать сообщения:    

    Черный дрозд через торрент
    Скачать бесплатно Черный дрозд
    Черный дрозд скачать торрент
    Черный дрозд смотреть онлайн
    Cкачать фильм Черный дрозд бесплатно
    Черный дрозд скачать торрент в хорошем качестве
    Черный дрозд смотреть онлайн бесплатно в хорошем качестве


    Вы не можете начинать темы
    Вы не можете отвечать на сообщения
    Вы не можете редактировать свои сообщения
    Вы не можете удалять свои сообщения
    Вы не можете голосовать в опросах
    Вы не можете прикреплять файлы к сообщениям
    Вы можете скачивать файлы