2 сезон

iTunes

1 сезон

1

iTunes

iTunes

iTunes

1 сезон

RePack

30

ИГРА 18+

pack

ВАЖНО

!!Акция!!

Alien_RageХит недели

RePack

MK11
pack

Забери бонус

RePack

jed

!!Акция!!

Alien_Rage

RePack

fifa19

RePack

Assassins Creed: Odyssey

RePack

NEED FOR SPEED™ PAYBACK

4 сезон

9 сезон

Бесстыжие 9 сезон

Все сериалы

все сериалы на PB.wtf

RePack

FAR CRY 5
  

Шаг вперед 4 / Step Up Revolution (Скотт Спир) [2012 г., драма, мелодрама, музыка, BDRip 720p, DUB (русский, украинский) + Оригинал] pb.wtf

Шаг вперед 4 через торрент pb.wtf

Размер: 6.44 GB | Добавлен: 7 лет 9 мес. назад | Торрент скачан:71 раз
Скачать  

28-01-2013 17:28 Шаг вперед 4 Скачать торрент  

Шаг вперед 4 / Step Up Revolution

Год выпуска: 2012
Страна: США
Жанр: драма, мелодрама, музыка
Продолжительность: 01:38:39
Перевод: Дубляж (русский, украинский)+ Оригинал
Субтитры: Russian, English

Режиссер: Скотт Спир
Продюссер: Эрик Фейг, Дженнифер Джибгот, Гаррет Грант
Сценарий: Аманда Броди, Дуан Адлер

Мировой рейтинг IMDB 6.20 (18 438)


В ролях: Райан Гузман, Кэтрин МакКормик, Миша Гэбриел Хэмилтон, Клеопатра Коулмэн, Стивен Стэннерт, Томми Дьюи, Питер Галлахер, Майкл «Ксено» Лэнджбек, Клаудио Пинто, Николь Дабо, Александр Гаврилин, Лина Иванова, Илья Хвостиков, Вероника Саркисова, Кирилл Туранский

Описание: Эмили, дочь влиятельного бизнесмена, приезжает в Майами с намерением стать профессиональной танцовщицей, но влюбляется в Шона — юношу, чья танцевальная труппа устраивает музыкальные флэшмобы. Команда, называющаяся MOB, участвует в конкурсе с внушительным денежным призом, а тем временем отец Эмили намеревается перестроить родной район ребят и переселить тысячи людей. Эмили присоединяется к танцорам и организует протестные мобы, рискуя не осуществить мечту, но сражаясь за нечто более важное.

Доп. информация: Сохранены оригинальные чаптеры как на Blu-ray.

Качество: BDRip 720p
Формат: MKV
Видео кодек: H.26x
Аудио кодек: DTS
Видео: 1280 x 534 (2.397) at 23.976 fps AVC at 4810 Кбит/сек
Аудио#1: DTS at 1510 Кбит/сек 6 каналов, 48,0 КГц Dub (rus)
Аудио#2: DTS at 1510 Кбит/сек 6 каналов, 48,0 КГц Dub (ukr)
Аудио#3: DTS at 1510 Кбит/сек 6 каналов, 48,0 КГц ENG





Общее
Уникальный идентификатор : 203888062266811520649616418457868428644 (0x99636995D11F007FBBAB1BE37AC1E564)
Полное имя : D:ФильмыHag.Vpered.4.2012.BDRip.720p.D.Rus.Ukr.Eng.mkv
Формат : Matroska
Версия формата : Version 2
Размер файла : 6,44 Гбайт
Продолжительность : 1 ч. 38 м.
Общий поток : 9340 Кбит/сек
Название фильма : Step Up Revolution (2012) - Release for HDCLUB by doclogan
Дата кодирования : UTC 2012-11-29 09:27:33
Программа кодирования : mkvmerge v5.7.0 ('The Whirlwind') built on Jul 8 2012 20:08:51
Библиотека кодирования : libebml v1.2.3 + libmatroska v1.3.0

Видео
Идентификатор : 1
Формат : AVC
Формат/Информация : Advanced Video Codec
Профиль формата : High@L4.1
Параметр CABAC формата : Да
Параметр ReFrames формата : 10 кадров
Идентификатор кодека : V_MPEG4/ISO/AVC
Продолжительность : 1 ч. 38 м.
Битрейт : 4810 Кбит/сек
Ширина : 1280 пикселей
Высота : 534 пикселя
Соотношение сторон : 2,40:1
Частота кадров : 23,976 кадра/сек
Цветовое пространство : YUV
Субдискретизация насыщенности : 4:2:0
Битовая глубина : 8 бит
Тип развёртки : Прогрессивная
Бит/(Пиксели*Кадры) : 0.294
Размер потока : 3,19 Гбайт (50%)
Заголовок : Release for HDCLUB by doclogan
Библиотека кодирования : x264 core 120 r2146 bcd41db
Настройки программы : cabac=1 / ref=10 / deblock=1:-3:-3 / analyse=0x3:0x113 / me=umh / subme=10 / psy=1 / psy_rd=1.00:0.05 / mixed_ref=1 / me_range=32 / chroma_me=1 / trellis=2 / 8x8dct=1 / cqm=0 / deadzone=21,11 / fast_pskip=0 / chroma_qp_offset=-2 / threads=8 / sliced_threads=0 / nr=0 / decimate=1 / interlaced=0 / bluray_compat=0 / constrained_intra=0 / bframes=5 / b_pyramid=2 / b_adapt=2 / b_bias=0 / direct=3 / weightb=1 / open_gop=0 / weightp=2 / keyint=250 / keyint_min=23 / scenecut=40 / intra_refresh=0 / rc=2pass / mbtree=0 / bitrate=4810 / ratetol=1.0 / qcomp=0.70 / qpmin=0 / qpmax=69 / qpstep=4 / cplxblur=20.0 / qblur=0.5 / ip_ratio=1.40 / pb_ratio=1.30 / aq=2:0.90
Язык : English
Default : Да
Forced : Нет

Аудио #1
Идентификатор : 2
Формат : DTS
Формат/Информация : Digital Theater Systems
Профиль формата : ES
Идентификатор кодека : A_DTS
Продолжительность : 1 ч. 38 м.
Вид битрейта : Постоянный
Битрейт : 1510 Кбит/сек
Каналы : 6 каналов
Расположение каналов : Front: L C R, Side: L R, LFE
Частота : 48,0 КГц
Битовая глубина : 24 бит
Метод сжатия : С потерями
Размер потока : 1,04 Гбайт (16%)
Заголовок : DTS 5.1 @ 1.5 Mbps – Дубляж (Blu-ray)
Язык : Russian
Default : Да
Forced : Нет

Аудио #2
Идентификатор : 3
Формат : DTS
Формат/Информация : Digital Theater Systems
Идентификатор кодека : A_DTS
Продолжительность : 1 ч. 38 м.
Вид битрейта : Постоянный
Битрейт : 1510 Кбит/сек
Каналы : 6 каналов
Расположение каналов : Front: L C R, Side: L R, LFE
Частота : 48,0 КГц
Битовая глубина : 24 бит
Метод сжатия : С потерями
Размер потока : 1,04 Гбайт (16%)
Заголовок : DTS 5.1 @ 1.5 Mbps – Дубляж (Blu-ray)
Язык : Ukrainian
Default : Нет
Forced : Нет

Аудио #3
Идентификатор : 4
Формат : DTS
Формат/Информация : Digital Theater Systems
Идентификатор кодека : A_DTS
Продолжительность : 1 ч. 38 м.
Вид битрейта : Постоянный
Битрейт : 1510 Кбит/сек
Каналы : 6 каналов
Расположение каналов : Front: L C R, Side: L R, LFE
Частота : 48,0 КГц
Битовая глубина : 24 бит
Метод сжатия : С потерями
Размер потока : 1,04 Гбайт (16%)
Заголовок : DTS 5.1 @ 1.5 Mbps
Язык : English
Default : Нет
Forced : Нет

Текст #1
Идентификатор : 5
Формат : UTF-8
Идентификатор кодека : S_TEXT/UTF8
Идентификатор кодека/Информация : UTF-8 Plain Text
Заголовок : Blu-ray
Язык : Russian
Default : Нет
Forced : Нет

Текст #2
Идентификатор : 6
Формат : UTF-8
Идентификатор кодека : S_TEXT/UTF8
Идентификатор кодека/Информация : UTF-8 Plain Text
Язык : English
Default : Нет
Forced : Нет

Меню
00:00:00.000 : en:00:00:00.000
00:05:36.836 : en:00:05:36.836
00:07:25.236 : en:00:07:25.236
00:11:46.915 : en:00:11:46.915
00:14:00.465 : en:00:14:00.465
00:16:54.513 : en:00:16:54.513
00:20:22.680 : en:00:20:22.680
00:23:16.228 : en:00:23:16.228
00:27:37.990 : en:00:27:37.990
00:32:30.323 : en:00:32:30.323
00:36:58.383 : en:00:36:58.383
00:39:49.387 : en:00:39:49.387
00:42:43.478 : en:00:42:43.478
00:45:50.081 : en:00:45:50.081
00:49:37.141 : en:00:49:37.141
00:56:35.642 : en:00:56:35.642
00:58:43.979 : en:00:58:43.979
01:02:47.097 : en:01:02:47.097
01:07:05.939 : en:01:07:05.939
01:11:52.391 : en:01:11:52.391
01:15:35.072 : en:01:15:35.072
01:17:22.847 : en:01:17:22.847
01:26:01.865 : en:01:26:01.865
01:31:32.195 : en:01:31:32.195


Шаг вперед 4 скачать торрент


pb.wtf



Скачать Шаг вперед 4 через торрент http://pic.kartinco.top/images/1/uj21lh242t.jpg Скачать фильм Шаг вперед 4 через торрент бесплантно в хорошем качестве Описание: Эмили, дочь влиятельного бизнесмена, приезжает в Майами с намерением стать профессиональной танцовщицей, но влюбляется в Шона — ... 10 10 3
Info! Золотая раздача, скачанное не засчитывается.
Торрент: Зарегистрирован [2013-01-28 17:28] · скачан: 71 раз
Статус: √ проверено
Размер: 6.44 GB
Как cкачать? Как скачать Шаг вперед 4 через торрент | qTorrent

28-11-2019 20:33  

Отключить всю рекламу на сайте

    Дорогой пользователь! Огромная просьба, поблагодарите релизера, оцените раздачу и оставьте свои комментарий, если Вы скачали Шаг вперед 4 через торрент бесплатно! Внесите свою лепту в развитие PiratBit!
    Комментировать посты могут только пользователи прошедшие не сложную регистрацию
    Показать сообщения:    

    Шаг вперед 4 через торрент
    Скачать бесплатно Шаг вперед 4
    Шаг вперед 4 скачать торрент
    Шаг вперед 4 смотреть онлайн
    Cкачать фильм Шаг вперед 4 бесплатно
    Шаг вперед 4 скачать торрент в хорошем качестве
    Шаг вперед 4 смотреть онлайн бесплатно в хорошем качестве


    Вы не можете начинать темы
    Вы не можете отвечать на сообщения
    Вы не можете редактировать свои сообщения
    Вы не можете удалять свои сообщения
    Вы не можете голосовать в опросах
    Вы не можете прикреплять файлы к сообщениям
    Вы можете скачивать файлы