Ссылка на приватное зеркало всего за 1$. Внимание количество ограничено!!!


iTunes

1+1

iTunes

мы

WEB-DL

1

iTunes

Чернобыль

iTunes

Ральф против интернета

Лицензия

ПШазам

Лицензия

Оно 2

WEB-DL

30
pack

Вам бонус

ВАЖНО

!!Акция!!

Alien_RageХит недели

RePack

Resident Evil 21

ИГРА 18+

pack

RePack

jed

!!Акция!!

Alien_Rage

RePack

fifa19

RePack

Assassins Creed: Odyssey

RePack

NEED FOR SPEED™ PAYBACK

4 сезон

9 сезон

Бесстыжие 9 сезон

Все сериалы

все сериалы на PB.wtf

RePack

FAR CRY 5
Ребята, катастрофически не хватает 1900р. для оплаты серверов за Октябрь (всвязи с блокировками трафик упал в 3 раза), 1-2р., выручайте.
  

Лауренция / Laurentie (Мэтью Л. Дэнис, Саймон Лавуа) [2011 г., драма, DVDRip, VO] pb.wtf

Лауренция через торрент pb.wtf

Размер: 2.05 GB | Добавлен: 6 лет 10 мес. назад | Торрент скачан:18 раз
Скачать  

28-01-2013 21:30 Лауренция Скачать торрент  

Лауренция / Laurentie

Год выпуска: 2011
Страна: Канада, Metafilms See more
Жанр: Драма
Продолжительность: 01:58:57
Перевод: Любительский (одноголосый)

Режиссер: Мэтью Л. Дэнис, Саймон Лавуа

В ролях: Эммануель Шварц, Евгения Бодри, Джейд Хассун, Martin Boily, Гийом Кир, Амели Даллер, Julie De Lafrenière, Simon Gfeller, Настассия Маркиевич, Дженис Ву

Описание: «Меня зовут Луи Депрэ. Мне 28 лет. Я живу в дыре, называемой Монреаль. Я не знаю, что мне нравится. Не знаю, кто мне нравится. Не знаю, что хочу делать со своей жизнью. Я вообще не знаю, кто я такой. Но одно я знаю точно — я не Другой. Другой — хорош собой, говорит на приятном соблазнительном языке, которого я не знаю. Он окружён друзьями — у меня их нет. Он счастлив — я нет. Недавно Другой поселился по соседству. Одно его присутствие, постоянно напоминает мне о моей собственной никчёмной жизни».




Качество: DVDRip
Формат: AVI
Видео кодек: XviD
Аудио кодек: AC3
Видео: 720x400, 1876 kb/s, 23.976 fps
Аудио: Russian: 48 kHz, AC3, 448 kb/s (6 ch) / English: 48 kHz, MP3 , 128 kb/s (2 ch)
Релиз группы:

General
Complete name : F:Laurent1e.2011.DVDRip.2100MB.avi
Format : AVI
Format/Info : Audio Video Interleave
Format profile : OpenDML
File size : 2.05 GiB
Duration : 1h 58mn
Overall bit rate : 2 470 Kbps
Writing application : VirtualDubMod 1.5.10.2 (build 2540/release)
Writing library : VirtualDubMod build 2540/release
Video #0
ID : 0
Format : MPEG-4 Visual
Format profile : Advanced Simple@L5
Format settings, BVOP : 2
Format settings, QPel : No
Format settings, GMC : No warppoints
Format settings, Matrix : Default (MPEG)
Codec ID : XVID
Codec ID/Hint : XviD
Duration : 1h 58mn
Bit rate : 1 876 Kbps
Width : 720 pixels
Height : 400 pixels
Display aspect ratio : 16:9
Frame rate : 23.976 fps
Color space : YUV
Chroma subsampling : 4:2:0
Bit depth : 8 bits
Scan type : Progressive
Compression mode : Lossy
Bits/(Pixel*Frame) : 0.272
Stream size : 1.56 GiB (76%)
Writing library : XviD 1.2.1 (UTC 2008-12-04)
Audio #1
ID : 1
Format : AC-3
Format/Info : Audio Coding 3
Mode extension : CM (complete main)
Format settings, Endianness : Big
Codec ID : 2000
Duration : 1h 58mn
Bit rate mode : Constant
Bit rate : 448 Kbps
Channel(s) : 6 channels
Channel positions : Front: L C R, Side: L R, LFE
Sampling rate : 48.0 KHz
Bit depth : 16 bits
Compression mode : Lossy
Stream size : 381 MiB (18%)
Alignment : Split accross interleaves
Interleave, duration : 42 ms (1.00 video frame)
Interleave, preload duration : 500 ms
Audio #2
ID : 2
Format : MPEG Audio
Format version : Version 1
Format profile : Layer 3
Mode : Joint stereo
Mode extension : MS Stereo
Codec ID : 55
Codec ID/Hint : MP3
Duration : 1h 58mn
Bit rate mode : Constant
Bit rate : 128 Kbps
Channel(s) : 2 channels
Sampling rate : 48.0 KHz
Compression mode : Lossy
Stream size : 109 MiB (5%)
Alignment : Aligned on interleaves
Interleave, duration : 42 ms (1.00 video frame)
Interleave, preload duration : 504 ms






pb.wtf



Скачать Лауренция через торрент http://pic.kartinco.top/images/1/q85svmbyp4.jpg Скачать фильм Лауренция через торрент бесплантно в хорошем качестве Описание: «Меня зовут Луи Депрэ. Мне 28 лет. Я живу в дыре, называемой Монреаль. Я не знаю, что мне нравится. Не знаю, кто мне нравится. ... 5 10 1
Info! Золотая раздача, скачанное не засчитывается.
Торрент: Зарегистрирован [2013-01-28 21:30] · скачан: 18 раз
Статус: T временная
Размер: 2.05 GB
Как cкачать? Как скачать Лауренция через торрент | qTorrent

28-11-2019 20:33  

Отключить всю рекламу на сайте


    Дорогой пользователь! Огромная просьба, поблагодарите релизера, оцените раздачу и оставьте свои комментарий, если Вы скачали Лауренция через торрент бесплатно! Внесите свою лепту в развитие PiratBit!
    Комментировать посты могут только пользователи прошедшие не сложную регистрацию
    Показать сообщения:    

    Лауренция через торрент
    Скачать бесплатно Лауренция
    Лауренция скачать торрент
    Лауренция смотреть онлайн
    Cкачать фильм Лауренция бесплатно
    Лауренция скачать торрент в хорошем качестве
    Лауренция смотреть онлайн бесплатно в хорошем качестве


    Вы не можете начинать темы
    Вы не можете отвечать на сообщения
    Вы не можете редактировать свои сообщения
    Вы не можете удалять свои сообщения
    Вы не можете голосовать в опросах
    Вы не можете прикреплять файлы к сообщениям
    Вы можете скачивать файлы