1 сезон

1 сезон

iTunes

1

КиноПоиск HD

Кинопоиск HD

iTunes

13

1 сезон

RePack

30

Новинка

ВАЖНО

ИГРА 18+

pack

RePack

MK11
pack

Легкие деньги

RePack

jed

RePack

fifa19

RePack

RDR2

RePack

NEED FOR SPEED™ PAYBACK

4 сезон

9 сезон

Бесстыжие 9 сезон

Все сериалы

все сериалы на PB.wtf

RePack

FAR CRY 5
  
Magnet ссылка

Земля мертвых / Land of the Dead (Джордж А. Ромеро) [2005 г., ужасы, HDRip, DUB] pb.wtf

Земля мертвых через торрент pb.wtf

Размер: 1.37 GB | Добавлен: 8 лет 2 мес. назад | Торрент скачан:234 раза
Скачать  

29-01-2013 06:28 Земля мертвых Скачать торрент  

Земля мертвых / Land of the Dead

Год выпуска: 2005
Страна: Канада
Жанр: ужасы
Продолжительность: 01:36:52
Перевод: Дубляж

Режиссер: Джордж А. Ромеро
Продюссер: Марк Кантон, Берни Голдманн, Питер Грюнвольд
Сценарий: Джордж А. Ромеро

Премьера в мире: 18 июня 2005



В ролях: Саймон Бейкер, Джон Легуизамо, Деннис Хоппер, Азия Ардженто, Роберт Джой, Юджин Кларк, Джоэнн Боланд, Тони Наппо, Дженнифер Бэкстер, Бойд Бэнкс, Алексей Мясников, Александр Гаврилин, Олег Форостенко, Татьяна Шитова, Андрей Казанцев

Описание: Ожившие мертвецы — зомби заполонили весь мир, и последние люди пытаются спастись, будучи заложниками ситуации в городе, окружённом неприступной стеной. Однако скоро и они окажутся под угрозой со стороны новых, более совершенных и более опасных существ...



Качество: HDRip
Формат: AVI
Видео кодек: XviD
Аудио кодек: AC3
Видео: MPEG4, XviD, 720x304 (2.35:1), 23.976 fps, 1 569 Kbps (0.299 bit/pixel)
Аудио: AC-3, 48.0 KHz, 6 ch, 448 Kbps, CBRСэмпл / Трейлер
Сатурн, 2006 год
Номинации (2):
Лучший фильм ужасов
Лучший грим
Формат : AVI
Формат/Информация : Audio Video Interleave
Размер файла : 1,37 Гбайт
Продолжительность : 1 ч. 36 м.
Общий поток : 2026 Кбит/сек
Название фильма : Zemlya Mertvyh
Программа кодирования : VirtualDubMod 1.5.10.3 | www.virtualdub-fr.org || (build 2550/release)
Примечание : Rip от кэп

Видео
Идентификатор : 0
Формат : MPEG-4 Visual
Профиль формата : Advanced Simple@L5
Параметр BVOP формата : 2
Параметр QPel формата : Нет
Параметр GMC формата : Без точки перехода
Параметр матрицы формата : Default (MPEG)
Идентификатор кодека : XVID
Идентификатор кодека/Подсказка : XviD
Продолжительность : 1 ч. 36 м.
Битрейт : 1569 Кбит/сек
Ширина : 720 пикселей
Высота : 304 пикселя
Соотношение сторон : 2,35:1
Частота кадров : 23,976 кадра/сек
Цветовое пространство : YUV
Субдискретизация насыщенности : 4:2:0
Битовая глубина : 8 бит
Тип развёртки : Прогрессивная
Метод сжатия : С потерями
Бит/(Пиксели*Кадры) : 0.299
Размер потока : 1,06 Гбайт (77%)
Библиотека кодирования : XviD 1.2.1 (UTC 2008-12-04)

Аудио
Идентификатор : 1
Формат : AC-3
Формат/Информация : Audio Coding 3
Расширение режима : CM (complete main)
Параметр Endianness формата : Big
Идентификатор кодека : 2000
Продолжительность : 1 ч. 36 м.
Вид битрейта : Постоянный
Битрейт : 448 Кбит/сек
Каналы : 6 каналов
Расположение каналов : Front: L C R, Side: L R, LFE
Частота : 48,0 КГц
Битовая глубина : 16 бит
Метод сжатия : С потерями
Размер потока : 310 Мбайт (22%)
Выравнивание : Разделение по промежуткам
Продолжительность промежутка : 42 мс. (1,00 видеокадр)
Время предзагрузки промежутка : 500 мс.
[th]https://pic.kartinco.top/images/1/kdbfrmdubt.bmp[/th] [th]https://pic.kartinco.top/images/1/kyvf2h3ojf.bmp[/th] [th]https://pic.kartinco.top/images/1/9cynh2ysqa.bmp[/th] [th]https://pic.kartinco.top/images/1/w1qao2scql.bmp[/th] [th]https://pic.kartinco.top/images/1/zzqzujqhxh.bmp[/th] [th]https://pic.kartinco.top/images/1/66ampcepgr.bmp[/th]pb.wtf



Скачать Земля мертвых через торрент http://i6.imageban.ru/out/2013/01/29/cb67013ef57e036bafaa0170e62bcd0a.png Скачать фильм Земля мертвых через торрент бесплантно в хорошем качестве Описание: Ожившие мертвецы — зомби заполонили весь мир, и последние люди пытаются спастись, будучи заложниками ситуации в городе, ... 10 10 6
Info! Золотая раздача, скачанное не засчитывается.
Торрент: Зарегистрирован [2013-01-29 06:28] · скачан: 234 раз
Статус: √ проверено
Размер: 1.37 GB
Как cкачать? Как скачать Земля мертвых через торрент | UTorrent

% Раздел Тема Автор DL S | L
Фильмы [HD 720p, 1080p] (Хороший звук DUB, MVO) [ 4.65 GB ] Земля мёртвых / Land of the Dead [2005 BDRip 720p by msltel] DUB MVO DVO AVO msltel Скачать
1 | 0
Фильмы [HD 720p, 1080p] (Хороший звук DUB, MVO) [ 10.9 GB ] Земля мёртвых / Land of the Dead [2005 BDRip 1080p by msltel] DUB MVO DVO AVO msltel Скачать
1 | 0
Видео (iPhone, iPod Touch) [ 3.28 GB ] Земля мертвых / Land of the Dead [2005 BDRip 720p от Leonardo / iPad] DUB] Ворон Скачать
1 | 0
Фильмы 2001-2005 [ 1.46 GB ] Земля мертвых / Land of the Dead [2005 HDTVRip] Lil Badun Скачать
1 | 0

28-11-2019 20:33  

Отключить всю рекламу на сайте

29-01-2013 07:22 Земля мертвых Скачать торрент  

ооо да)))... в 2005 -м наверное один из лучших фильмов на эту тему. pb.wtf



29-01-2013 12:33 Земля мертвых Скачать торрент  

Согласен с выше сказоным! :good:pb.wtf



23-02-2013 12:03 Земля мертвых Скачать торрент  

классный ужастикpb.wtf



    Дорогой пользователь! Огромная просьба, поблагодарите релизера, оцените раздачу и оставьте свои комментарий, если Вы скачали Земля мертвых через торрент бесплатно! Внесите свою лепту в развитие PiratBit!
    Комментировать посты могут только пользователи прошедшие не сложную регистрацию
    Показать сообщения:    

    Земля мертвых через торрент
    Скачать бесплатно Земля мертвых
    Земля мертвых скачать торрент
    Земля мертвых смотреть онлайн
    Cкачать фильм Земля мертвых бесплатно
    Земля мертвых скачать торрент в хорошем качестве
    Земля мертвых смотреть онлайн бесплатно в хорошем качестве


    Вы не можете начинать темы
    Вы не можете отвечать на сообщения
    Вы не можете редактировать свои сообщения
    Вы не можете удалять свои сообщения
    Вы не можете голосовать в опросах
    Вы не можете прикреплять файлы к сообщениям
    Вы можете скачивать файлы