Ссылка на приватное зеркало всего за 1$. Внимание количество ограничено!!!

OK

1+1

iTunes

мы

OK

1

WEB-DLRip

Джокер

Пифагор

Ведьмак / The Witcher сериал

Лицензия

ПШазам

ОК

Оно 2

iTunes

30
pack

Вам бонус

ВАЖНО

!!Акция!!

Alien_RageХит недели

RePack

Resident Evil 21

ИГРА 18+

pack

RePack

jed

!!Акция!!

Alien_Rage

RePack

fifa19

RePack

Assassins Creed: Odyssey

RePack

NEED FOR SPEED™ PAYBACK

4 сезон

9 сезон

Бесстыжие 9 сезон

Все сериалы

все сериалы на PB.wtf

RePack

FAR CRY 5
  

Три богатыря на дальних берегах (Константин Феоктистов) [2012 г., мультфильм, комедия, приключения, BDRip, DUB, лицензия] pb.wtf

Три богатыря на дальних берегах через торрент pb.wtf

Размер: 1.37 GB | Добавлен: 6 лет 11 мес. назад | Торрент скачан:1573 раза
Скачать  

29-01-2013 13:43 Три богатыря на дальних берегах Скачать торрент  

Три богатыря на дальних берегах

Год выпуска: 2012
Страна: Россия
Жанр: мультфильм, комедия, приключения
Продолжительность: 01:11:18
Перевод: Оригинал, Лицензия

Режиссер: Константин Феоктистов
Продюссер: Александр Боярский, Сергей Сельянов
Сценарий: Александр Боярский

Мировой рейтинг IMDB 4.40 (104)


В ролях: Дмитрий Быковский-Ромашов, Валерий Соловьев, Олег Куликович, Сергей Маковецкий, Дмитрий Высоцкий, Фёдор Бондарчук, Елизавета Боярская, Мария Цветкова-Овсянникова, Елена Шульман, Лия Медведева

Описание: На этот раз Алеша Попович, Добрыня Никитич и Илья Муромец, благодаря козням коварной Бабы Яги, оказываются за семью морями на острове, на котором живут туземцы и страшный Гомума. В их отсутствие купец Колыван решают вместе с Бабой-Ягой захватить царство и забрать Влacть у князя Киевского. На помощь незадачливому правителю приходит конь Юлий, а также жены богатырей и их многочисленные родственники. Словом, богатырей и зрителей ждут приключения на дальних берегах, обыкновенные и невероятные.

Качество: BDRip[Рип с Blu-Ray]
Формат: AVI
Видео кодек: XviD
Аудио кодек: AC3
Видео: 720x400 (1.80:1), 23.976 fps, XviD build 50 ~2286 kbps avg, 0.33 bit/pixel
Аудио#1: 48 kHz, AC3 Dolby Digital, 3/2 (L,C,R,l,r) + LFE ch, ~448 kbps
Релиз от:

General
Complete name : H:киноTri.bogatyrja.na.dalnih.beregah.2012.O.BDRip.IRONCLUB.avi
Format : AVI
Format/Info : Audio Video Interleave
File size : 1.37 GiB
Duration : 1h 11mn
Overall bit rate : 2 744 Kbps
Movie name : Tri.bogatyrja.na.dalnih.beregah.2012.O.BDRip.
Director :
Genre : Comedy / Adventure
Writing application : VirtualDubMod 1.5.10.3 | www.virtualdub-fr.org || (build 2550/release)
Original source form/Name : Cartoon
Copyright :

Video
ID : 0
Format : MPEG-4 Visual
Format profile : Advanced Simple@L5
Format settings, BVOP : 1
Format settings, QPel : No
Format settings, GMC : No warppoints
Format settings, Matrix : Custom
Codec ID : XVID
Codec ID/Hint : XviD
Duration : 1h 11mn
Bit rate : 2 286 Kbps
Width : 720 pixels
Height : 400 pixels
Display aspect ratio : 16:9
Frame rate : 23.976 fps
Color space : YUV
Chroma subsampling : 4:2:0
Bit depth : 8 bits
Scan type : Progressive
Compression mode : Lossy
Bits/(Pixel*Frame) : 0.331
Stream size : 1.14 GiB (83%)
Writing library : XviD 1.2.1 (UTC 2008-12-04)

Audio
ID : 1
Format : AC-3
Format/Info : Audio Coding 3
Mode extension : CM (complete main)
Codec ID : 2000
Duration : 1h 11mn
Bit rate mode : Constant
Bit rate : 448 Kbps
Channel(s) : 6 channels
Channel positions : Front: L C R, Side: L R, LFE
Sampling rate : 48.0 KHz
Bit depth : 16 bits
Compression mode : Lossy
Stream size : 228 MiB (16%)
Alignment : Split accross interleaves
Interleave, duration : 42 ms (1.00 video frame)
Interleave, preload duration : 500 ms


Три богатыря на дальних берегах скачать торрент


pb.wtf



Скачать Три богатыря на дальних берегах через торрент http://i54.fastpic.ru/big/2013/0129/40/0109ce8d6459b3863b3f20adb65dfc40.png Скачать фильм Три богатыря на дальних берегах через торрент бесплантно в хорошем качестве Описание: На этот раз Алеша Попович, Добрыня Никитич и Илья Муромец, благодаря козням коварной Бабы Яги, оказываются за семью морями на ... 9.9 10 30
Info! Золотая раздача, скачанное не засчитывается.
Торрент: Зарегистрирован [2013-01-29 13:43] · скачан: 1 573 раз
Статус: √ проверено
Размер: 1.37 GB
Как cкачать? Как скачать Три богатыря на дальних берегах через торрент | qTorrent

% Раздел Тема Автор DL S | L
Наши Мультфильмы (HD, WEB-DL 720p, 1080p) [ 6.75 GB ] Алеша Попович и Тугарин Змей / Добрыня Никитич и Змей Горыныч / Илья Муромец и Соловей Разбойник / Три богатыря и Шамаханская царица / Три богатыря на дальних берегах [2004-2012 мультфильм BDRip 720p] от R.G. PiratFilms Demonessa Скачать
1 | 0
Иностранные мультфильмы [ 1.36 GB ] Три богатыря на дальних берегах [2012 мультфильм DVDRip Оригинал]-лицензия Зайчина Скачать
1 | 0
3D Мультфильмы [ 6.73 GB ] Три богатыря на дальних берегах [2012 мультфильм ]Вертикальная анаморфная стереопара Андрей фил Скачать
1 | 0
Наши мультфильмы [ 657 MB ] Три богатыря на дальних берегах [2012 мультфильм BDRip-AVC] jb_alex Скачать
1 | 0
Наши Мультфильмы (HD, WEB-DL 720p, 1080p) [ 3.92 GB ] Три богатыря на дальних берегах [2012 мультфильм BDRip 1080p Оригинал лицензия] Trava-HD Скачать
1 | 0
Наши Мультфильмы (DVD) [ 3.7 GB ] Три богатыря на дальних берегах [2012 мультфильм DVD5] R5 voovaz Скачать
1 | 0
Иностранные мультфильмы [ 703 MB ] Три богатыря на дальних берегах [2012 Мультфильм DVDRip Оригинал лицензия] |700 Мб| Mr. Freeman Скачать
1 | 0

28-11-2019 20:33  

Отключить всю рекламу на сайте

29-01-2013 17:59 Три богатыря на дальних берегах Скачать торрент  

Люблю эти мульты :pleasantry:pb.wtf



30-01-2013 06:55 Три богатыря на дальних берегах Скачать торрент  

надо глянуть, качество картинки вроде хорошее судя по скринамpb.wtf



30-01-2013 13:08 Три богатыря на дальних берегах Скачать торрент  

oleg8
за мульт спасибо!!!
убери в названии Дубляжpb.wtf



14-12-2018 18:25 Три богатыря на дальних берегах Скачать торрент  

Спастбоpb.wtf



    Дорогой пользователь! Огромная просьба, поблагодарите релизера, оцените раздачу и оставьте свои комментарий, если Вы скачали Три богатыря на дальних берегах через торрент бесплатно! Внесите свою лепту в развитие PiratBit!
    Комментировать посты могут только пользователи прошедшие не сложную регистрацию
    Показать сообщения:    

    Три богатыря на дальних берегах через торрент
    Скачать бесплатно Три богатыря на дальних берегах
    Три богатыря на дальних берегах скачать торрент
    Три богатыря на дальних берегах смотреть онлайн
    Cкачать фильм Три богатыря на дальних берегах бесплатно
    Три богатыря на дальних берегах скачать торрент в хорошем качестве
    Три богатыря на дальних берегах смотреть онлайн бесплатно в хорошем качестве


    Вы не можете начинать темы
    Вы не можете отвечать на сообщения
    Вы не можете редактировать свои сообщения
    Вы не можете удалять свои сообщения
    Вы не можете голосовать в опросах
    Вы не можете прикреплять файлы к сообщениям
    Вы можете скачивать файлы