Мега распродажа FORZA HORIZON 4 ULTIMATE+ВСЕ DLC+ОНЛАЙН всего за 499р. 349 руб. (супер цена). Внимание количество ограничено!!!

iTunes

1+1

iTunes

мы

iTunes

1

1 сезон

Чернобыль

1 сезон

Ральф против интернета

Лицензия

ПШазам

8 сезон

Игра престолов

Лицензия

30
pack

ВАЖНО

!!Акция!!

Alien_RageХит недели

RePack

Resident Evil 21

ИГРА 18+

pack

RePack

Metro:Exodus

!!Акция!!

Alien_Rage

RePack

fifa19

RePack

Assassins Creed: Odyssey

RePack

NEED FOR SPEED™ PAYBACK

3 сезон

9 сезон

Бесстыжие 9 сезон

Все сериалы

все сериалы на PB.wtf

RePack

FAR CRY 5
Ребята, катастрофически не хватает 2730р. для оплаты серверов за ИЮНЬ (всвязи с блокировками трафик упал в 3 раза), 1-2р., выручайте.
  

Киборг / Cyborg (Альберт Пьюн) [1989 г., фантастика, боевик, BDRip 720p, MVO закадровый, лицензия + AVO] pb.wtf

Киборг через торрент pb.wtf

Размер: 3.83 GB | Добавлен: 6 лет 5 мес. назад | Торрент скачан:62 раза
Скачать  

02-02-2013 13:43 Киборг Скачать торрент  

Киборг / Cyborg

Год выпуска: 1989
Страна: США
Жанр: фантастика, боевик
Продолжительность: 01:26:24
Перевод: Профессиональный многоголосый закадровый, Лицензия

Режиссер: Альберт Пьюн
Продюссер: Йорам Глобус, Менахем Голан, Том Карновски
Сценарий: Китти Чалмерс

Бюджет: $2 000 000
Премьера в мире: 7 апреля 1989

Мировой рейтинг IMDB 4.70 (15 413)



В ролях: Жан-Клод Ван Дамм, Дебора Рихтер, Винсент Клин, Алекс Дэниелс, Дейл Хэддон, Блэйз Лунг, Ральф Мёллер, Хейли Питерсон, Терри Батсон, Джексон «Скала» Пинкни

Описание: Америка 21-го века, прозябая в социальной анархии и смертоносной чуме, вот-вот станет жертвой бурного воровского беспредела. Только Перл Профет, прекрасная полуженщина-полуробот, знает секрет создания спасительной вакцины.Собирая компоненты, необходимые для спасения человечества, Перл попадает в плен к людоеду Флэшу Пайротсу, который замыслил использовать противоядие в личных целях и добиться господства над целым миром. Теперь только стальной кулак героя-меченосца Гибсона Рикенбакера может спасти ее, а заодно и все, что еще осталось от человечества...

Качество: BDRip 720p
Формат: MKV
Видео кодек: x264
Аудио кодек: AC3
Видео: 5200 Кбит/сек, 1280 x 688 (1,860) 23,976 fps, (0.246 bit/pixel)
Аудио#1: 48.0 kHz, AC3, 192 kb/s (2 ch), (Rus)
Аудио#2: 48.0 kHz, AC3, 192 kb/s (2 ch), (Ukr)
Аудио#3: 48.0 kHz, AC3, 192 kb/s (2 ch), (Eng)
Аудио#4: 48.0 kHz, AC3, 192 kb/s (2 ch), АVO [Вартан Дохалов]
Аудио#5: 48.0 kHz, AC3, 192 kb/s (2 ch), AVO [Андрей Гаврилов]
Аудио#6: 48.0 kHz, AC3, 192 kb/s (2 ch), AVO [Леонид Володарский]
Субтитры: Russian(Forced, Full), English

скриншот   скриншот   скриншот   скриншот   скриншот   скриншот  

Общее
Уникальный идентификатор : 219030239172882150390101051813853004275 (0xA4C7B08BEA44D09AA80138E6A2B601F3)
Полное имя : D:DVDCyborg.1989.BluRay.720p.mkv
Формат : Matroska
Версия формата : Version 2
Размер файла : 3,83 Гбайт
Продолжительность : 1 ч. 26 м.
Общий поток : 6351 Кбит/сек
Название фильма : Cyborg 1989 By 3Li
Дата кодирования : UTC 2013-02-02 12:16:02
Программа кодирования : mkvmerge v4.0.0 ('The Stars were mine') сборка от Jun 6 2010 16:18:42
Библиотека кодирования : libebml v1.0.0 + libmatroska v1.0.0

Видео
Идентификатор : 1
Формат : AVC
Формат/Информация : Advanced Video Codec
Профиль формата : High@L4.1
Параметр CABAC формата : Да
Параметр ReFrames формата : 5 кадров
Идентификатор кодека : V_MPEG4/ISO/AVC
Продолжительность : 1 ч. 26 м.
Битрейт : 5200 Кбит/сек
Ширина : 1280 пикс.
Высота : 688 пикс.
Соотношение сторон : 1,860
Частота кадров : 23,976 кадр/сек
Цветовое пространство : YUV
Подвыборка цветности : 4:2:0
Битовая глубина : 8 бит
Тип развёртки : Прогрессивная
Бит/(Пиксели*Кадры) : 0.246
Размер потока : 3,06 Гбайт (80%)
Заголовок : Cyborg 1989 By 3Li
Библиотека кодирования : x264 core 129 r2230 1cffe9f
Настройки программы : cabac=1 / ref=5 / deblock=1:-3:-3 / analyse=0x3:0x113 / me=umh / subme=9 / psy=1 / psy_rd=1.00:0.00 / mixed_ref=1 / me_range=18 / chroma_me=1 / trellis=1 / 8x8dct=1 / cqm=0 / deadzone=21,11 / fast_pskip=0 / chroma_qp_offset=-2 / threads=3 / lookahead_threads=1 / sliced_threads=0 / nr=0 / decimate=0 / interlaced=0 / bluray_compat=0 / constrained_intra=0 / bframes=3 / b_pyramid=2 / b_adapt=2 / b_bias=0 / direct=1 / weightb=1 / open_gop=0 / weightp=2 / keyint=240 / keyint_min=23 / scenecut=40 / intra_refresh=0 / rc_lookahead=40 / rc=2pass / mbtree=1 / bitrate=5200 / ratetol=1.0 / qcomp=0.60 / qpmin=0 / qpmax=69 / qpstep=4 / cplxblur=20.0 / qblur=0.5 / ip_ratio=1.40 / aq=1:1.00
Язык : English

Аудио #1
Идентификатор : 2
Формат : AC-3
Формат/Информация : Audio Coding 3
Расширение режима : CM (complete main)
Идентификатор кодека : A_AC3
Продолжительность : 1 ч. 26 м.
Вид битрейта : Постоянный
Битрейт : 192 Кбит/сек
Каналы : 2 канала
Расположение каналов : Front: L R
Частота : 48,0 КГц
Битовая глубина : 16 бит
Метод сжатия : С потерями
Размер потока : 119 Мбайт (3%)
Заголовок : (AC3, 2 ch, 192 Кбит/с) Dub [R5]
Язык : Russian

Аудио #2
Идентификатор : 3
Формат : AC-3
Формат/Информация : Audio Coding 3
Расширение режима : CM (complete main)
Идентификатор кодека : A_AC3
Продолжительность : 1 ч. 26 м.
Вид битрейта : Постоянный
Битрейт : 192 Кбит/сек
Каналы : 2 канала
Расположение каналов : Front: L R
Частота : 48,0 КГц
Битовая глубина : 16 бит
Метод сжатия : С потерями
Размер потока : 119 Мбайт (3%)
Заголовок : (AC3, 2 ch, 192 Кбит/с) Dub [1+1]
Язык : Ukrainian

Аудио #3
Идентификатор : 4
Формат : AC-3
Формат/Информация : Audio Coding 3
Расширение режима : CM (complete main)
Идентификатор кодека : A_AC3
Продолжительность : 1 ч. 26 м.
Вид битрейта : Постоянный
Битрейт : 192 Кбит/сек
Каналы : 2 канала
Расположение каналов : Front: L R
Частота : 48,0 КГц
Битовая глубина : 16 бит
Метод сжатия : С потерями
Размер потока : 119 Мбайт (3%)
Заголовок : (AC3, 2 ch, 192 Кбит/с)
Язык : English

Аудио #4
Идентификатор : 5
Формат : AC-3
Формат/Информация : Audio Coding 3
Расширение режима : CM (complete main)
Идентификатор кодека : A_AC3
Продолжительность : 1 ч. 26 м.
Вид битрейта : Постоянный
Битрейт : 192 Кбит/сек
Каналы : 2 канала
Расположение каналов : Front: L R
Частота : 48,0 КГц
Битовая глубина : 16 бит
Метод сжатия : С потерями
Размер потока : 119 Мбайт (3%)
Заголовок : (AC3, 2 ch, 192 Кбит/с) AVO [Вартан Дохалов]
Язык : Russian

Аудио #5
Идентификатор : 6
Формат : AC-3
Формат/Информация : Audio Coding 3
Расширение режима : CM (complete main)
Идентификатор кодека : A_AC3
Продолжительность : 1 ч. 26 м.
Вид битрейта : Постоянный
Битрейт : 192 Кбит/сек
Каналы : 2 канала
Расположение каналов : Front: L R
Частота : 48,0 КГц
Битовая глубина : 16 бит
Метод сжатия : С потерями
Размер потока : 119 Мбайт (3%)
Заголовок : (AC3, 2 ch, 192 Кбит/с) АVO [Андрей Гаврилов]
Язык : Russian

Аудио #6
Идентификатор : 7
Формат : AC-3
Формат/Информация : Audio Coding 3
Профиль формата : Dolby Digital
Расширение режима : CM (complete main)
Идентификатор кодека : A_AC3
Продолжительность : 1 ч. 26 м.
Вид битрейта : Постоянный
Битрейт : 192 Кбит/сек
Каналы : 2 канала
Расположение каналов : Front: L R
Частота : 48,0 КГц
Битовая глубина : 16 бит
Метод сжатия : С потерями
Размер потока : 119 Мбайт (3%)
Заголовок : (AC3, 2 ch, 192 Кбит/с) АVO [Леонид Володарский]
Язык : Russian

Текст #1
Идентификатор : 8
Формат : UTF-8
Идентификатор кодека : S_TEXT/UTF8
Идентификатор кодека/Информация : UTF-8 Plain Text
Заголовок : forsed
Язык : Russian

Текст #2
Идентификатор : 9
Формат : UTF-8
Идентификатор кодека : S_TEXT/UTF8
Идентификатор кодека/Информация : UTF-8 Plain Text
Заголовок : full
Язык : Russian

Текст #3
Идентификатор : 10
Формат : UTF-8
Идентификатор кодека : S_TEXT/UTF8
Идентификатор кодека/Информация : UTF-8 Plain Text
Язык : English


Киборг скачать торрент


pb.wtf



Скачать Киборг через торрент http://i53.fastpic.ru/big/2013/0202/12/bb55ed184da044aa028cad19d26ff112.png Скачать фильм Киборг через торрент бесплантно в хорошем качестве Описание: Америка 21-го века, прозябая в социальной анархии и смертоносной чуме, вот-вот станет жертвой бурного воровского беспредела. ... 10 10 2
Info! Золотая раздача, скачанное не засчитывается.
Торрент: Зарегистрирован [2013-02-02 13:43] · скачан: 62 раз
Статус: √ проверено
Размер: 3.83 GB
Как cкачать? Как скачать Киборг через торрент | qTorrent

% Раздел Тема Автор DL S | L
Фильмы [HD 720p, 1080p] (Хороший звук DUB, MVO) [ 16.23 GB ] Киборг / Cyborg [1989 BDRip 1080p] 4xMVO [Союз-Видео Россия СТС НТВ bober100 Скачать
1 | 0
T Релизы по Парсеру [Игры, Сериалы и Фильмы и другое...] [ 1.39 GB ] Киборг X / Cyborg X WEB-DLRip Ворон Скачать
1 | 0
Фильмы до 2000 г. [ 1.37 GB ] Киборг-полицейский 2 / Cyborg Cop II [1994 DVDRip] AVO killermax2013 Скачать
1 | 0
Фильмы до 2000 г. [ 1.53 GB ] Киборг 2:Стеклянная тень / Cyborg 2 [1993 DVDRip MVO] vanya110 Скачать
1 | 0
Фильмы до 2000 г. [ 1.46 GB ] Американский киборг: Стальной воин / American Cyborg: Steel Warrior [1993 DVDRip MVO] PsYcho Скачать
1 | 0
Фильмы до 2000 г. [ 1.46 GB ] Киборг / Cyborg [1989 DVDRip-AVC] feldeger Скачать
1 | 0
Фильмы 2006-2008 [ 1.47 GB ] Солдат Киборг / Cyborg Soldier [2008 HDRip] Anonymous Скачать
1 | 0


Последний раз редактировалось: slaventi-69 (2013-02-02 13:59), всего редактировалось 2 раз(а)


>> Регистрируемся здесь <<






Отзывы и комментарии о схеме читаем и пишем здесь: ---> Отзывы и комментарии о схеме

Новые благодарочки в телеграм довольных пользователей:
скриншот   скриншот   скриншот   скриншот   скриншот

02-02-2013 13:46 Киборг Скачать торрент  

slaventi-69, разве на этот фильма есть дубляж?pb.wtf



02-02-2013 13:59 Киборг Скачать торрент  

Простите, чисто автоматом, пока заполнил все переводы забыл исправить. Теперь все в порядке.
"Профессиональный многоголосый закадровый"pb.wtf



    Дорогой пользователь! Огромная просьба, поблагодарите релизера, оцените раздачу и оставьте свои комментарий, если Вы скачали Киборг через торрент бесплатно! Внесите свою лепту в развитие PiratBit!
    Комментировать посты могут только пользователи прошедшие не сложную регистрацию
    Показать сообщения:    

    Киборг через торрент
    Скачать бесплатно Киборг
    Киборг скачать торрент
    Киборг смотреть онлайн
    Cкачать фильм Киборг бесплатно
    Киборг скачать торрент в хорошем качестве
    Киборг смотреть онлайн бесплатно в хорошем качестве


    Вы не можете начинать темы
    Вы не можете отвечать на сообщения
    Вы не можете редактировать свои сообщения
    Вы не можете удалять свои сообщения
    Вы не можете голосовать в опросах
    Вы не можете прикреплять файлы к сообщениям
    Вы можете скачивать файлы