2 сезон

iTunes

1 сезон

1

iTunes

iTunes

iTunes

1 сезон

RePack

30

ИГРА 18+

pack

ВАЖНО

!!Акция!!

Alien_RageХит недели

RePack

MK11
pack

Забери бонус

RePack

jed

!!Акция!!

Alien_Rage

RePack

fifa19

RePack

Assassins Creed: Odyssey

RePack

NEED FOR SPEED™ PAYBACK

4 сезон

9 сезон

Бесстыжие 9 сезон

Все сериалы

все сериалы на PB.wtf

RePack

FAR CRY 5
  

007: Координаты «Скайфолл» / Skyfall (Сэм Мендес) [2012 г., Боевик, триллер, криминал, приключения, BDRip 1080p, DUB + Оригинал+Ukr+Sub rus,eng,ukr] pb.wtf

007: Координаты «Скайфолл» через торрент pb.wtf

Размер: 17.99 GB | Добавлен: 7 лет 8 мес. назад | Торрент скачан:289 раз
Скачать  

02-02-2013 15:40 007: Координаты «Скайфолл» Скачать торрент  

007: Координаты «Скайфолл» / SkyfallГод выпуска: 2012
Страна: Великобритания, США, Metro-Goldwyn-Mayer (MGM)
Жанр: Боевик, триллер, криминал, приключения
Продолжительность: 02:23:09
Перевод: Дубляж + Оригинал+Украинский (Дубляж)

Режиссер: Сэм Мендес

Субтитры: Русские, английские, украинские

В ролях: Дэниэл Крэйг, Хавьер Бардем, Джуди Денч, Рэйф Файнс, Бен Уишоу, Наоми Харрис, Альберт Финни, Беренис Марло, Хелен МакКрори, Тония Сотиропулу, Рори Киннер, Ола Рапас, Николас Вудесон, Уильям Бакхерст, Элиз дю Ту, Йен Бонар, Гордон Милн, Питер Башам, Бен Лойд-Холмс, Вульф Блицер, Дэвид Гиллис, Джеймс Ли, Кеннет Хэзелдайн, Орион Ли, Дейв Вон, Тэнк Донг, Роджер Йуан, Лианг Янг, Еннис Чун-Ян, Чойе Бэй, Сид Мэн, Анджела Трэн, Миодраг Капор, Хув Эдвардс, Адебайо Боладжи, Элиа Ло Тауро, Амир Бутрус, Хан Бонфилс, Николас Го, Джон Ходжкинсон, Курт Эгиаван, Оливер Джонстоун, Гарри Кершоу, Берт Цезар, Пол Венаблс, Криспин Леттс

Описание: Лояльность Бонда своей начальнице М под угрозой со стороны ее прошлого, которое внезапно даст о себе знать. MI6 подвергается нападению, и агент 007 должен ликвидировать угрозу, несмотря на цену, которую придется заплатить.

Качество: BDRip 1080p
Формат: MKV
Видео кодек: MPEG-4 AVC/H.264
Аудио кодек: DTS / AC3 5.
Видео: MPEG-4 AVC, 14.5 Мбит/с, 1920x800 23.976 fps
Аудио#1: Русский, DTS 5.1, 755 kbps, 48 kHz
Аудио#2: Украинский, AC3 5.1, 448 kbps, 48 kHz
Аудио#3: английский (DTS, 6 ch, 1510 Кбит/c), (AC3, 2 ch, 224 Кбит/c)
Релиз от:
General
Unique ID : 215929084265359598293520413176835703485 (0xA2726DCE08AA7B79A4E80FBB7BED82BD)
Complete name : Skyfall.2012.1080p.BluRay.Rus.Ukr.3x.Eng.x264-IRONCLUB.mkv
Format : Matroska
Format version : Version 2
File size : 18.0 GiB
Duration : 2h 23mn
Overall bit rate : 18.0 Mbps
Movie name : IRONCLUB
Encoded date : UTC 2013-02-02 06:22:31
Writing application : mkvmerge v5.2.0 ('I can't explain') built on Dec 18 2011 18:12:03
Writing library : libebml v1.2.3 + libmatroska v1.3.0

Video
ID : 1
Format : AVC
Format/Info : Advanced Video Codec
Format profile : High@L4.1
Format settings, CABAC : Yes
Format settings, ReFrames : 5 frames
Codec ID : V_MPEG4/ISO/AVC
Duration : 2h 23mn
Bit rate : 14.5 Mbps
Width : 1 920 pixels
Height : 800 pixels
Display aspect ratio : 2.40:1
Frame rate : 23.976 fps
Color space : YUV
Chroma subsampling : 4:2:0
Bit depth : 8 bits
Scan type : Progressive
Bits/(Pixel*Frame) : 0.393
Stream size : 14.5 GiB (80%)
Title : Skyfall 2012 1080p BluRay DTS x264-IRONCLUB
Writing library : x264 core 129 r2245kMod bc13772
Encoding settings : cabac=1 / ref=5 / deblock=1:-3:-3 / analyse=0x3:0x113 / me=umh / subme=11 / psy=1 / fade_compensate=0.00 / psy_rd=1.05:0.00 / mixed_ref=1 / me_range=32 / chroma_me=1 / trellis=2 / 8x8dct=1 / cqm=0 / deadzone=21,11 / fast_pskip=0 / chroma_qp_offset=-2 / threads=12 / lookahead_threads=2 / sliced_threads=0 / nr=0 / decimate=1 / interlaced=0 / bluray_compat=0 / constrained_intra=0 / bframes=9 / b_pyramid=2 / b_adapt=2 / b_bias=0 / direct=3 / weightb=1 / open_gop=0 / weightp=2 / keyint=250 / keyint_min=23 / scenecut=40 / intra_refresh=0 / rc_lookahead=192 / rc=crf / mbtree=0 / crf=16.5000 / qcomp=0.70 / qpmin=0 / qpmax=69 / qpstep=4 / vbv_maxrate=50000 / vbv_bufsize=62500 / crf_max=0.0 / nal_hrd=none / ip_ratio=1.30 / pb_ratio=1.20 / aq=1:0.80
Language : English
Default : Yes
Forced : Yes

Audio #1
ID : 2
Format : DTS
Format/Info : Digital Theater Systems
Codec ID : A_DTS
Duration : 2h 23mn
Bit rate mode : Constant
Bit rate : 755 Kbps
Channel(s) : 6 channels
Channel positions : Front: L C R, Side: L R, LFE
Sampling rate : 48.0 KHz
Bit depth : 24 bits
Compression mode : Lossy
Stream size : 773 MiB (4%)
Title : DTS 5.1 @ 768 kbps - Dub, BD EUR
Language : Russian
Default : Yes
Forced : Yes

Audio #2
ID : 3
Format : AC-3
Format/Info : Audio Coding 3
Mode extension : CM (complete main)
Format settings, Endianness : Big
Codec ID : A_AC3
Duration : 2h 23mn
Bit rate mode : Constant
Bit rate : 448 Kbps
Channel(s) : 6 channels
Channel positions : Front: L C R, Side: L R, LFE
Sampling rate : 48.0 KHz
Bit depth : 16 bits
Compression mode : Lossy
Stream size : 459 MiB (2%)
Title : DD 5.1 @ 448 kbps - Dub, BD EUR
Language : Ukrainian
Default : No
Forced : No

Audio #3
ID : 4
Format : DTS
Format/Info : Digital Theater Systems
Codec ID : A_DTS
Duration : 2h 23mn
Bit rate mode : Constant
Bit rate : 1 510 Kbps
Channel(s) : 6 channels
Channel positions : Front: L C R, Side: L R, LFE
Sampling rate : 48.0 KHz
Bit depth : 24 bits
Compression mode : Lossy
Stream size : 1.51 GiB (8%)
Title : DTS 5.1 @ 1536 kbps
Language : English
Default : No
Forced : No

Audio #4
ID : 5
Format : AC-3
Format/Info : Audio Coding 3
Mode extension : CM (complete main)
Format settings, Endianness : Big
Codec ID : A_AC3
Duration : 2h 23mn
Bit rate mode : Constant
Bit rate : 224 Kbps
Channel(s) : 2 channels
Channel positions : Front: L R
Sampling rate : 48.0 KHz
Bit depth : 16 bits
Compression mode : Lossy
Stream size : 229 MiB (1%)
Title : Commentary Sam Mendes
Language : English
Default : No
Forced : No

Audio #5
ID : 6
Format : AC-3
Format/Info : Audio Coding 3
Mode extension : CM (complete main)
Format settings, Endianness : Big
Codec ID : A_AC3
Duration : 2h 23mn
Bit rate mode : Constant
Bit rate : 224 Kbps
Channel(s) : 2 channels
Channel positions : Front: L R
Sampling rate : 48.0 KHz
Bit depth : 16 bits
Compression mode : Lossy
Stream size : 229 MiB (1%)
Title : Commentary Dennis Gassner
Language : English
Default : No
Forced : No

Text #1
ID : 7
Format : UTF-8
Codec ID : S_TEXT/UTF8
Codec ID/Info : UTF-8 Plain Text
Language : Russian
Default : No
Forced : No

Text #2
ID : 8
Format : UTF-8
Codec ID : S_TEXT/UTF8
Codec ID/Info : UTF-8 Plain Text
Title : Commentary
Language : Russian
Default : No
Forced : No

Text #3
ID : 9
Format : UTF-8
Codec ID : S_TEXT/UTF8
Codec ID/Info : UTF-8 Plain Text
Title : Commentary Sam Mendes
Language : Russian
Default : No
Forced : No

Text #4
ID : 10
Format : UTF-8
Codec ID : S_TEXT/UTF8
Codec ID/Info : UTF-8 Plain Text
Title : Forced
Language : Ukrainian
Default : No
Forced : No

Text #5
ID : 11
Format : UTF-8
Codec ID : S_TEXT/UTF8
Codec ID/Info : UTF-8 Plain Text
Language : English
Default : No
Forced : No

Menu
00:00:00.000 : en:Chapter 01
00:04:28.476 : en:Chapter 02
00:07:32.452 : en:Chapter 03
00:12:47.391 : en:Chapter 04
00:16:47.464 : en:Chapter 05
00:21:37.337 : en:Chapter 06
00:25:00.290 : en:Chapter 07
00:29:25.221 : en:Chapter 08
00:35:06.145 : en:Chapter 09
00:38:27.763 : en:Chapter 10
00:41:24.440 : en:Chapter 11
00:46:22.905 : en:Chapter 12
00:50:48.628 : en:Chapter 13
00:54:53.290 : en:Chapter 14
00:59:38.741 : en:Chapter 15
01:05:14.243 : en:Chapter 16
01:10:16.670 : en:Chapter 17
01:17:09.750 : en:Chapter 18
01:20:55.058 : en:Chapter 19
01:26:10.373 : en:Chapter 20
01:31:49.754 : en:Chapter 21
01:37:04.527 : en:Chapter 22
01:40:49.084 : en:Chapter 23
01:43:45.969 : en:Chapter 24
01:45:54.723 : en:Chapter 25
01:52:10.598 : en:Chapter 26
01:54:45.795 : en:Chapter 27
01:58:13.044 : en:Chapter 28
02:02:49.111 : en:Chapter 29
02:09:38.645 : en:Chapter 30
02:14:49.623 : en:Chapter 31
02:17:46.424 : en:Chapter 32

pb.wtf



Скачать 007: Координаты «Скайфолл» через торрент http://s14.directupload.net/images/130201/ww88by92.png Скачать фильм 007: Координаты «Скайфолл» через торрент бесплантно в хорошем качестве Описание: Лояльность Бонда своей начальнице М под угрозой со стороны ее прошлого, которое внезапно даст о себе знать. MI6 подвергается ... 9.8 10 4
Info! Золотая раздача, скачанное не засчитывается.
Торрент: Зарегистрирован [2013-02-02 15:40] · скачан: 289 раз
Статус: √ проверено
Размер: 17.99 GB
Как cкачать? Как скачать 007: Координаты «Скайфолл» через торрент | qTorrent

% Раздел Тема Автор DL S | L
Ultra HD (UHD: 2K, 4K, 8K) — видео сверхвысокой чёткости [ 65.61 GB ] 007: Координаты «Скайфолл» / Skyfall [2012 UHD BDRemux 2160p] [Dolby Vision] DUB [] +3xAVO bober100 Скачать
1 | 0
Ultra HD (UHD: 2K, 4K, 8K) — видео сверхвысокой чёткости [ 16.37 GB ] 007: Координаты «Скайфолл» / Skyfall [2012 UHD BDRip 2160p] DUB [] bober100 Скачать
2 | 0
Ultra HD (UHD: 2K, 4K, 8K) — видео сверхвысокой чёткости [ 50.13 GB ] 007: Координаты «Скайфолл» / Skyfall [2012 UHD BDRemux 2160p] DUB [] bober100 Скачать
2 | 0
Фильмы (Blu-ray, BD-Remux, HDDVD) [ 40.08 GB ] Джеймс Бонд. Агент 007: Координаты «Скайфолл» / James Bond: Skyfall [2012 BDRemux 1080p] Dub + 3x AVO + Ukr + Subs + Original читерас Скачать
1 | 0
Официальные cаундтреки к зарубежным фильмам [ 183 MB ] 007: Координаты «Скайфолл» / Skyfall 2012 / MP3 / 320 kbps / Score merik Скачать
1 | 0
Фильмы с авторской озвучкой [ 2.38 GB ] 007: Координаты «Скайфолл» / Skyfall [2012 BDRip-AVC] [AVO] + [AVO] killermax2013 Скачать
1 | 0
Фильмы 2012 [ 2.06 GB ] 007: Координаты «Скайфолл» / Skyfall [2012 HDRip DUB лицензия] ALIK1989 Скачать
1 | 0

28-11-2019 20:33  

Отключить всю рекламу на сайте

02-02-2013 16:04 007: Координаты «Скайфолл» Скачать торрент  

Спасибо за труды, ждал mkv с DTS, скорости бы ещё)))pb.wtf



02-02-2013 17:16 007: Координаты «Скайфолл» Скачать торрент  

Спасибо!!!!говорят отличный фильмpb.wtf



03-02-2013 13:08 007: Координаты «Скайфолл» Скачать торрент  

че то еле качает... 14 человек..
скоростИ!!!pb.wtf



08-02-2013 16:40 007: Координаты «Скайфолл» Скачать торрент  

А что случилось с семплом? Нажимаю, а мне вот что выдает "Файл не найден. Автор мог удалить сам, мог истечь срок годности, или поступила жалоба на нарушение прав!"?pb.wtf



    Дорогой пользователь! Огромная просьба, поблагодарите релизера, оцените раздачу и оставьте свои комментарий, если Вы скачали 007: Координаты «Скайфолл» через торрент бесплатно! Внесите свою лепту в развитие PiratBit!
    Комментировать посты могут только пользователи прошедшие не сложную регистрацию
    Показать сообщения:    

    007: Координаты «Скайфолл» через торрент
    Скачать бесплатно 007: Координаты «Скайфолл»
    007: Координаты «Скайфолл» скачать торрент
    007: Координаты «Скайфолл» смотреть онлайн
    Cкачать фильм 007: Координаты «Скайфолл» бесплатно
    007: Координаты «Скайфолл» скачать торрент в хорошем качестве
    007: Координаты «Скайфолл» смотреть онлайн бесплатно в хорошем качестве


    Вы не можете начинать темы
    Вы не можете отвечать на сообщения
    Вы не можете редактировать свои сообщения
    Вы не можете удалять свои сообщения
    Вы не можете голосовать в опросах
    Вы не можете прикреплять файлы к сообщениям
    Вы можете скачивать файлы