Ссылка на приватное зеркало нашего сайта всего за 1$. Внимание количество ограничено!!!

2 сезон

iTunes

1 сезон

1

iTunes

iTunes

iTunes

1 сезон

RePack

30

ИГРА 18+

pack

ВАЖНО

!!Акция!!

Alien_RageХит недели

RePack

MK11
pack

Забери бонус

RePack

jed

!!Акция!!

Alien_Rage

RePack

fifa19

RePack

Assassins Creed: Odyssey

RePack

NEED FOR SPEED™ PAYBACK

4 сезон

9 сезон

Бесстыжие 9 сезон

Все сериалы

все сериалы на PB.wtf

RePack

FAR CRY 5
  

Особо опасны / Savages [Unrated Cut] (Оливер Стоун) [2012 г., триллер, драма, криминал, BDRip 720p, DUB +Оригинал, лицензия] pb.wtf

Особо опасны через торрент pb.wtf

Размер: 6.81 GB | Добавлен: 7 лет 8 мес. назад | Торрент скачан:262 раза
Скачать  

02-02-2013 18:10 Особо опасны Скачать торрент  



Особо опасны / Savages

Год выпуска: 2012
Страна: США
Жанр: триллер, драма, криминал
Продолжительность: 02:21:10
Перевод: Дубляж +Оригинал, Лицензия

Режиссер: Оливер Стоун
Продюссер: Мориц Борман, Эрик Копелофф, Тодд Арноу
Сценарий: Дон Уинслоу, Шейн Салерно, Оливер Стоун

Мировой рейтинг IMDB 6.50 (46 564)


В ролях: Тейлор Китч, Блейк Лайвли, Аарон Тейлор-Джонсон, Джон Траволта, Бенисио Дель Торо, Сальма Хайек, Эмиль Хирш, Демиан Бишир, Антонио Джарамилло, Хоакин Косио, Юрий Брежнев, Татьяна Шитова, Антон Эльдаров, Владимир Герасимов, Владимир Антоник

Описание: Молодые миллионеры Бен и Чон ведут дела на побережье Калифорнии. Бен — выдающийся ботаник и талантливый бизнесмен, Чон — мастер возвращения долгов и борьбы с конкурентами. В их работе много сложных моментов, ведь они выращивают лучшую в мире траву. Особо серьезные проблемы решает знакомый агент ФБР.Но с одной не сможет помочь даже он. Сверхприбыльным бизнесом заинтересовался мексиканский картель. Его возглавляет прекрасная Елена, и она нашла главную слабость друзей — и Бен, и Чон принадлежат одной девушке. Ради прелестной О. они готовы на все. Любовь делает нас особо опасными.
Доп. информация: Сохранены оригинальные чаптеры как на Blu Ray

Качество: BDRip 720p
Формат: MKV
Видео кодек: H.264
Аудио кодек: AC3
Видео: 1280 x 720 (1.778) at 23.976 fps AVC at 5870 Кбит/сек
Аудио#1: AC-3 at 448 Кбит/сек 6 каналов, 48,0 КГц DUB
Аудио#2: AC-3 at 448 Кбит/сек 6 каналов, 48,0 КГц ENG
Релиз от: меня




Общее
Уникальный идентификатор : 207694018804458004983847671421457913882 (0x9C4069BAEDDF9F06A22051890FBBD81A)
Полное имя : D:ФильмыSavages.2012.D.BDRip.720p.mkv
Формат : Matroska
Версия формата : Version 4 / Version 2
Размер файла : 6,81 Гбайт
Продолжительность : 2 ч. 21 м.
Общий поток : 6903 Кбит/сек
Название фильма : Особо опасны / Savages (2012) | Unrated Cut
Дата кодирования : UTC 2010-02-22 21:41:31
Программа кодирования : mkvmerge v5.9.0 ('On The Loose') built on Dec 9 2012 15:37:01
Библиотека кодирования : libebml v1.3.0 + libmatroska v1.4.0

Видео
Идентификатор : 1
Формат : AVC
Формат/Информация : Advanced Video Codec
Профиль формата : Baseline@L3.1
Параметр CABAC формата : Нет
Параметр ReFrames формата : 1 кадр
Параметр GOP формата : M=1, N=12
Режим смешивания : Header stripping
Идентификатор кодека : V_MPEG4/ISO/AVC
Продолжительность : 2 ч. 21 м.
Битрейт : 5870 Кбит/сек
Ширина : 1280 пикселей
Высота : 720 пикселей
Соотношение сторон : 16:9
Режим частоты кадров : Переменный
Частота кадров : 23,976 кадра/сек
Цветовое пространство : YUV
Субдискретизация насыщенности : 4:2:0
Битовая глубина : 8 бит
Тип развёртки : Прогрессивная
Бит/(Пиксели*Кадры) : 0.266
Размер потока : 5,79 Гбайт (85%)
Язык : English
Default : Да
Forced : Нет

Аудио #1
Идентификатор : 2
Формат : AC-3
Формат/Информация : Audio Coding 3
Расширение режима : CM (complete main)
Режим смешивания : Header stripping
Идентификатор кодека : A_AC3
Продолжительность : 2 ч. 21 м.
Вид битрейта : Постоянный
Битрейт : 448 Кбит/сек
Каналы : 6 каналов
Расположение каналов : Front: L C R, Side: L R, LFE
Частота : 48,0 КГц
Битовая глубина : 16 бит
Метод сжатия : С потерями
Размер потока : 452 Мбайт (6%)
Заголовок : Rus
Язык : Russian
Default : Да
Forced : Нет

Аудио #2
Идентификатор : 3
Формат : AC-3
Формат/Информация : Audio Coding 3
Расширение режима : CM (complete main)
Режим смешивания : Header stripping
Идентификатор кодека : A_AC3
Продолжительность : 2 ч. 21 м.
Вид битрейта : Постоянный
Битрейт : 448 Кбит/сек
Каналы : 6 каналов
Расположение каналов : Front: L C R, Side: L R, LFE
Частота : 48,0 КГц
Битовая глубина : 16 бит
Метод сжатия : С потерями
Размер потока : 452 Мбайт (6%)
Заголовок : Eng
Язык : English
Default : Нет
Forced : Нет

Меню
00:00:00.000 : :Chapter 01
00:06:42.151 : :Chapter 02
00:13:40.736 : :Chapter 03
00:20:58.215 : :Chapter 04
00:24:36.933 : :Chapter 05
00:31:40.899 : :Chapter 06
00:41:50.257 : :Chapter 07
00:48:33.869 : :Chapter 08
00:57:19.519 : :Chapter 09
01:02:04.554 : :Chapter 10
01:11:21.819 : :Chapter 11
01:19:53.747 : :Chapter 12
01:28:03.236 : :Chapter 13
01:36:29.867 : :Chapter 14
01:43:49.848 : :Chapter 15
01:48:41.348 : :Chapter 16
01:56:37.031 : :Chapter 17
02:02:58.496 : :Chapter 18
02:11:47.024 : :Chapter 19
02:16:49.910 : :Chapter 20
02:21:09.669 : :Chapter 21


Особо опасны скачать торрент


pb.wtf



Скачать Особо опасны через торрент http://pic.kartinco.top/images/1/cbeapic9gk.png Скачать фильм Особо опасны через торрент бесплантно в хорошем качестве Описание: Молодые миллионеры Бен и Чон ведут дела на побережье Калифорнии. Бен — выдающийся ботаник и талантливый бизнесмен, Чон — мастер ... 9.7 10 3
Info! Золотая раздача, скачанное не засчитывается.
Торрент: Зарегистрирован [2013-02-02 18:10] · скачан: 262 раз
Статус: √ проверено
Размер: 6.81 GB
Как cкачать? Как скачать Особо опасны через торрент | qTorrent

% Раздел Тема Автор DL S | L
Фильмы [HD 720p, 1080p] (Хороший звук DUB, MVO) [ 10.89 GB ] Особо опасны / Savages [2012 BDRip 720p лицензия] Ke$h@ Скачать
1 | 0
Фильмы 2012 [ 1.46 GB ] Особо опасны / Savages [UNRATED] [2012 HDRip DUB лицензия] Seedtank Скачать
1 | 0
Фильмы 2012 [ 2.18 GB ] Особо опасны / Savages [UNRATED] [2012 HDRip DUB лицензия] Seedtank Скачать
1 | 0
Фильмы (Blu-ray, BD-Remux, HDDVD) [ 42.56 GB ] Особо опасны / Savages [2012 Blu-ray 1080p] СЕЕ Unrated Cut diletant Скачать
1 | 0
Фильмы [HD 720p, 1080p] (Хороший звук DUB, MVO) [ 14.87 GB ] Особо опасны / Savages [UNRATED] [2012 BDRip 1080p DUB + Оригинал]+Sub engrus Trava-HD Скачать
1 | 1
Фильмы (DVD фильмы) [ 6.88 GB ] Особо опасны / Savages [2012 DVD9] R5 voovaz Скачать
1 | 0
Фильмы с авторской озвучкой [ 1.46 GB ] Особо опасны / Дикари / Savages [2012 BDRip AVO Ю.Сербин] bogyn Скачать
1 | 0

28-11-2019 20:33  

Отключить всю рекламу на сайте

    Дорогой пользователь! Огромная просьба, поблагодарите релизера, оцените раздачу и оставьте свои комментарий, если Вы скачали Особо опасны через торрент бесплатно! Внесите свою лепту в развитие PiratBit!
    Комментировать посты могут только пользователи прошедшие не сложную регистрацию
    Показать сообщения:    

    Особо опасны через торрент
    Скачать бесплатно Особо опасны
    Особо опасны скачать торрент
    Особо опасны смотреть онлайн
    Cкачать фильм Особо опасны бесплатно
    Особо опасны скачать торрент в хорошем качестве
    Особо опасны смотреть онлайн бесплатно в хорошем качестве


    Вы не можете начинать темы
    Вы не можете отвечать на сообщения
    Вы не можете редактировать свои сообщения
    Вы не можете удалять свои сообщения
    Вы не можете голосовать в опросах
    Вы не можете прикреплять файлы к сообщениям
    Вы можете скачивать файлы