Ссылка на приватное зеркало всего за 1$. Внимание количество ограничено!!!

iTunes

iTunes

iTunes

1

iTunes

iTunes

iTunes

iTunes

iTunes

30
pack

$ от Little Big

ВАЖНО

!!Акция!!

Alien_RageХит недели

RePack

Resident Evil 21

ИГРА 18+

pack

RePack

jed

!!Акция!!

Alien_Rage

RePack

fifa19

RePack

Assassins Creed: Odyssey

RePack

NEED FOR SPEED™ PAYBACK

4 сезон

9 сезон

Бесстыжие 9 сезон

Все сериалы

все сериалы на PB.wtf

RePack

FAR CRY 5
  

Лондон / London (Хантер Ричардс / Hunter Richards) [ 2005 , драма, мелодрама , WEB-DL 720р ] pb.wtf

Лондон через торрент pb.wtf

Размер: 3.12 GB | Добавлен: 7 лет 5 мес. назад | Торрент скачан:110 раз
Скачать  

03-02-2013 18:14 Лондон Скачать торрент  

ЛондонLondon«A Film About Love And Her Victims.»
Страна: США, Великобритания
Жанр: драма, мелодрама
Год выпуска: 2005
Продолжительность: 01:32:30
Режиссер: Хантер Ричардс / Hunter Richards
В ролях: Крис Эванс (Syd), Джессика Бил (London), Джой Брайант (Mallory), Джейсон Стэйтем (Bateman), Келли Гарнер (Maya), Айла Фишер (Rebecca), Луис С.К. (Therapist), Джефф Вульф (Jay), Дейн Кук (George), Лина Эско (Kelly), Пола Пэттон (Alex), Кэт Деннингс (Lilly)

Ничего нет возвышенней любви, когда она разгорается - и ничего нет любви разрушительней, когда она гаснет. Бросившись в пучину страстного, бурного романа с загадочной девушкой по имени Лондон, Сид верил, что эта музыка сфер будет вечной, но ошибся.
Однажды они оба поняли, что чувства исчерпали себя, и Лондон ушла из жизни героя. Но девушка ушла, а боль осталась. Пытаясь заглушить муки разбитого сердца, Сид пускается во все тяжкие, глуша себя виски и наркотиками. Тщетно!
Поняв, что его жизнь бессмысленна без любимой, герой решает, во что бы то ни стало увидеть Лондон и либо уговорить ее вернуться - либо умереть. Но у него будет всего одна попытка: если он не успеет сделать это сегодня, он уже не успеет это сделать никогда - завтра Лондон навсегда уезжает из города. ..


MPAA: R - Лицам до 17 лет обязательно присутствие взрослого
Качество: WEB-DL
Контейнер: MKV
Источник: London 2005 720p WEB-DL AAC2.0 H.264-CtrlHD
Видео: 1280x544 at 23.976 fps, MPEG-4 AVC, ~4000 kbps avg
Аудио#1: Russian: 48 kHz, AC3, 2/0 (L,R) ch, ~192 kbps avg |Многоголосый закадровый, Первый канал|
Аудио#2: Russian: 48 kHz, AC3, 3/2 (L,C,R,l,r) + LFE ch, ~448 kbps avg |Двухголосый закадровый, R5|
Аудио#3: English: 48 kHz, AAC, 2/0 (L,R) ch, ~160 kbps avg
Субтитры: None
General
Unique ID : 207121245961691455309722330393065575698 (0x9BD219D9470A3F649C0C7E17CE385512)
Complete name : G:Фильмы High DefinitionЗападные фильмыЛондон (2005) 720p WEB-DLLondon.2005.720p.WEB-DL.2xRus.Eng.HDCLUB.mkv
Format : Matroska
Format version : Version 4 / Version 2
File size : 3.12 GiB
Duration : 1h 32mn
Overall bit rate : 4 824 Kbps
Movie name : London (2005) - Release for HDCLUB
Encoded date : UTC 2010-02-22 21:41:31
Writing application : mkvmerge v5.9.0 ('On The Loose') built on Dec 9 2012 15:37:01
Writing library : libebml v1.3.0 + libmatroska v1.4.0

Video
ID : 1
Format : AVC
Format/Info : Advanced Video Codec
Format profile : Main@L3.1
Format settings, CABAC : No
Format settings, ReFrames : 2 frames
Codec ID : V_MPEG4/ISO/AVC
Duration : 1h 32mn
Width : 1 280 pixels
Height : 544 pixels
Display aspect ratio : 2.35:1
Frame rate : 23.976 fps
Color space : YUV
Chroma subsampling : 4:2:0
Bit depth : 8 bits
Scan type : Progressive
Title : Release for HDCLUB
Language : English
Default : Yes
Forced : No
Color primaries : BT.709-5, BT.1361, IEC 61966-2-4, SMPTE RP177
Transfer characteristics : BT.709-5, BT.1361
Matrix coefficients : BT.709-5, BT.1361, IEC 61966-2-4 709, SMPTE RP177

Audio #1
ID : 2
Format : AC-3
Format/Info : Audio Coding 3
Mode extension : CM (complete main)
Codec ID : A_AC3
Duration : 1h 32mn
Bit rate mode : Constant
Bit rate : 192 Kbps
Channel(s) : 2 channels
Channel positions : Front: L R
Sampling rate : 48.0 KHz
Bit depth : 16 bits
Compression mode : Lossy
Stream size : 127 MiB (4%)
Title : MVO, 1tv
Language : Russian
Default : Yes
Forced : Yes

Audio #2
ID : 3
Format : AC-3
Format/Info : Audio Coding 3
Mode extension : CM (complete main)
Codec ID : A_AC3
Duration : 1h 32mn
Bit rate mode : Constant
Bit rate : 448 Kbps
Channel(s) : 6 channels
Channel positions : Front: L C R, Side: L R, LFE
Sampling rate : 48.0 KHz
Bit depth : 16 bits
Compression mode : Lossy
Stream size : 296 MiB (9%)
Title : DVO, R5
Language : Russian
Default : No
Forced : No

Audio #3
ID : 4
Format : AAC
Format/Info : Advanced Audio Codec
Format profile : LC
Codec ID : A_AAC
Duration : 1h 32mn
Channel(s) : 2 channels
Channel positions : Front: L R
Sampling rate : 48.0 KHz
Compression mode : Lossy
Title : Eng
Language : English
Default : No
Forced : No
pb.wtf



Скачать Лондон через торрент http://s019.radikal.ru/i624/1302/ec/2c61dda7cfaa.jpg Скачать фильм Лондон через торрент бесплантно в хорошем качестве В ролях: Крис Эванс (Syd), Джессика Бил (London), Джой Брайант (Mallory), Джейсон Стэйтем (Bateman), Келли Гарнер (Maya), Айла Фишер ... 10 10 3
Info! Золотая раздача, скачанное не засчитывается.
Торрент: Зарегистрирован [2013-02-03 18:14] · скачан: 110 раз
Статус: √ проверено
Размер: 3.12 GB
Как cкачать? Как скачать Лондон через торрент | qTorrent

% Раздел Тема Автор DL S | L
Фильмы 2017 [DVDrip, WEB-DLRip, HDrip] (DUB, MVO) [ 1.46 GB ] Отвязные в Лондоне / Потерявшийся в Лондоне / Lost in London [2017 BDRip] bober100 Скачать
13 | 0
Зарубежные сериалы [ 8.64 GB ] Банды Лондона / Gangs of London / Сезон: 1 / Серии: 1-9 из 9 [2020 HDTVRip] MVO [AlexFilm NewStudio] Twi7ter Скачать
34 | 19
Порно фильмы HD [ 6.01 GB ] Рыцари Лондона : Герои И Злодеи / London Knights: A Heroes and Villains XXX Parody [2016 Feature Parody WEB-DL 1080p Оригинальный] DJASFUL Скачать
1 | 0
Зарубежные сериалы [ 7.66 GB ] Банды Лондона / Gangs of London / Сезон: 1 / Серии: 1-9 из 9 [2020 HDTVRip] MVO [AlexFilm] bober100 Скачать
3 | 0
Зарубежные сериалы [ 23.75 GB ] Банды Лондона / Gangs of London / Сезон: 1 / Серии: 1-9 из 9 [2020 HDTV 1080p] 3xMVO [AlexFilm LostFilm NewStudio] bober100 Скачать
5 | 0
Зарубежные сериалы [ 7.58 GB ] Банды Лондона / Gangs of London / Сезон: 1 / Серии: 1-9 из 9 [2020 HDTVRip] [MVO] killermax2013 Скачать
4 | 1
Зарубежные сериалы [ 19.26 GB ] Банды Лондона / Gangs of London / Сезон: 1 / Серии: 1-9 из 9 [2020 WEBRip 1080p] [MVO] killermax2013 Скачать
2 | 1

28-11-2019 20:33  

Отключить всю рекламу на сайте

    Дорогой пользователь! Огромная просьба, поблагодарите релизера, оцените раздачу и оставьте свои комментарий, если Вы скачали Лондон через торрент бесплатно! Внесите свою лепту в развитие PiratBit!
    Комментировать посты могут только пользователи прошедшие не сложную регистрацию
    Показать сообщения:    

    Лондон через торрент
    Скачать бесплатно Лондон
    Лондон скачать торрент
    Лондон смотреть онлайн
    Cкачать фильм Лондон бесплатно
    Лондон скачать торрент в хорошем качестве
    Лондон смотреть онлайн бесплатно в хорошем качестве


    Вы не можете начинать темы
    Вы не можете отвечать на сообщения
    Вы не можете редактировать свои сообщения
    Вы не можете удалять свои сообщения
    Вы не можете голосовать в опросах
    Вы не можете прикреплять файлы к сообщениям
    Вы можете скачивать файлы