Достать ножи: Стеклянная луковица

MVO

Добыча

Дубляж

Уэнсдэй

1 сезон

Тор

Дубляж

13 клиническая

1 сезон

Жестокая ночь

MVO

Одни из нас

1 сезон

Deluxe

pack

Рекомендуем

30

Пиратка

ВАЖНО

ВАЖНО

Ghostwire

Пиратка

jed

RePack

nioh2

RePack

RDR2

RePack

NEED FOR SPEED™ PAYBACK

RePack

скачать торрент

Кинопоиск HD

Острые козырьки 6 сезон

6 сезон

FAR CRY 6

RePack

скачать торрент

Лицензия

скачать торрент

MVO

1

1 сезон

скачать торрент

1 сезон

скачать торрент

Лицензия

  

Смертельная гонка 3 / Death Race: Inferno (Роэль Рейн) [2013 г., боевик, триллер, криминал, HDRip, Дубляж, лицензия]

Смертельная гонка 3 через торрент pb.wtf

Размер: 1.46 GB | Добавлен: 9 лет назад | Торрент скачан:2180 раз
Смотреть онлайн | Скачать | Поддержите нас   

03-02-2013 23:08 Смертельная гонка 3 Скачать торрент  

Смертельная гонка 3 / Death Race: Inferno

Год выпуска: 2013
Страна: США
Жанр: боевик, триллер, криминал
Продолжительность: 01:45:12
Перевод: Дубляж, Лицензия

Режиссер: Роэль Рейн
Продюссер: Пол У. С. Андерсон, Джереми Болт, Майк Эллиот
Сценарий: Тони Гиглио

Мировой рейтинг IMDB 5.40 (3 792)


В ролях: Дэнни Трехо, Винг Реймз, Дюгрэй Скотт, Люк Госс, Танит Феникс, Робин Шоу, Фредерик Колер, Таня ван Граан, Лэнгли Кирквуд, Шон Майкл, Пётр Иващенко

Описание: Осужденный полицейский-убийца Карл Лукас, он же Франкенштейн, суперзвезда жестоких тюремных гонок на выживание, известных как Смертельная Гонка. Только одна победа отделяет его от получения свободы для себя и своей команды. Однако теперь Лукас оказался в совершенно новом, ещё более порочном соревновании. Сражаясь против властных закулисных сил и безжалостных противников, Лукас борется, чтобы спасти себя и свою команду в адской гонке в пустыне Калахари и получить свободу.

Качество: HDRip
Формат: AVI
Видео кодек: XviD
Аудио кодек: AC3
Видео: 720x400 (1.80:1), 23.976 fps, XviD MPEG-4 ~1527 kbps avg, 0.22 bit/pixel
Аудио#1: 48 kHz, AC3 Dolby Digital, 3/2 (L,C,R,l,r) + LFE ch, ~448 kbps
General
Complete name : H:киноSmertelnaya.gonka.3.UNRATED.2013.D.HDRip.1.46GB.avi
Format : AVI
Format/Info : Audio Video Interleave
File size : 1.46 GiB
Duration : 1h 45mn
Overall bit rate : 1 985 Kbps
Writing application : VirtualDubMod 1.5.10.3 | www.virtualdub-fr.org || (build 2550/release)
Writing library : VirtualDubMod build 2550/release

Video
ID : 0
Format : MPEG-4 Visual
Format profile : Advanced [email protected]
Format settings, BVOP : 2
Format settings, QPel : No
Format settings, GMC : No warppoints
Format settings, Matrix : Custom
Codec ID : XVID
Codec ID/Hint : XviD
Duration : 1h 45mn
Bit rate : 1 411 Kbps
Width : 720 pixels
Height : 400 pixels
Display aspect ratio : 16:9
Frame rate : 23.976 fps
Color space : YUV
Chroma subsampling : 4:2:0
Bit depth : 8 bits
Scan type : Progressive
Compression mode : Lossy
Bits/(Pixel*Frame) : 0.204
Stream size : 602 MiB (40%)
Writing library : XviD 64

Audio
ID : 1
Format : AC-3
Format/Info : Audio Coding 3
Mode extension : CM (complete main)
Codec ID : 2000
Duration : 1h 45mn
Bit rate mode : Constant
Bit rate : 448 Kbps
Channel(s) : 6 channels
Channel positions : Front: L C R, Side: L R, LFE
Sampling rate : 48.0 KHz
Bit depth : 16 bits
Compression mode : Lossy
Delay relative to video : 26ms
Stream size : 191 MiB (13%)
Alignment : Split accross interleaves
Interleave, duration : 42 ms (1.00 video frame)
Interleave, preload duration : 500 ms


Смертельная гонка 3 (видео) скачать торрент





Скачать Смертельная гонка 3 через торрент https://pic1.kartinco.top/images/111/95dqtjn3m3.png Скачать, смотреть онлайн Смертельная гонка 3 бесплантно в хорошем качестве Описание: Осужденный полицейский-убийца Карл Лукас, он же Франкенштейн, суперзвезда жестоких тюремных гонок на выживание, известных как ... 9.6 10 36
Info! Золотая раздача, скачанное не засчитывается.
Торрент: Зарегистрирован [2013-02-03 23:08] · скачан: 2 180 раз
Статус: √ проверено
Размер: 1.46 GB
Как cкачать? Как скачать Смертельная гонка 3 через торрент | UTorrent

% Раздел Тема Автор DL S | L
Фильмы 2013 [DVDrip, WEB-DLRip, HDrip] [ 2.05 GB ] Смертельная гонка 3 / Death Race: Inferno | DUB | HDRip, DUB / лицензия! Mr. Freeman Скачать
1 | 0
Фильмы 2012 [ 1.92 GB ] Смертельная гонка 3: Ад / Death Race: Inferno | DUB | BDRip-AVC, DUB, лицензия Sудья Скачать
1 | 0
Фильмы [HD 720p, 1080p] (Хороший звук DUB, MVO) [ 14.79 GB ] Смертельная гонка 3 / Death Race: Inferno [Unrated Extended Cut | DUB + Оригинал | 1080p, DUB + Оригинал, лицензия Sудья Скачать
1 | 0
Фильмы (DVD фильмы) [ 7.2 GB ] Смертельная гонка 3: Ад / Death Race: Inferno | | 2013, боевик, триллер, криминал, DVD9 voovaz Скачать
1 | 0
Фильмы [HD 720p, 1080p] (Хороший звук DUB, MVO) [ 7.83 GB ] Смертельная гонка 3 / Death Race: Inferno | DUB + Оригинал | 720p, DUB + Оригинал, лицензия Sудья Скачать
1 | 0
Фильмы без перевода [ 698 MB ] Смертельная гонка 3 / Death Race: Inferno | | WEBRip , Оригинал [ENG ALIK1989 Скачать
1 | 0

28-11-2019 20:33  


Отключить вcю реклaмy на сайте, в т.ч. и в плеере онлайн просмотра!

03-02-2013 23:22 Смертельная гонка 3 Скачать торрент  

Моё личное мнение что Фильм ваще неудолся первые две лучьше!!!! 3 из 10"""



03-02-2013 23:27 Смертельная гонка 3 Скачать торрент  

Зайчина писал(а):

Моё личное мнение что Фильм ваще неудолся первые две лучьше!!!! 3 из 10"""

,
а я еще не смотрел,ждал нормального бубняжа-теперь гляну .



04-02-2013 08:28 Смертельная гонка 3 Скачать торрент  

Зайчина писал(а):

Моё личное мнение что Фильм ваще неудолся первые две лучьше!!!! 3 из 10"""

Для б боевика он не плох.Куда лучше чем фильмы с ван даммом



04-02-2013 15:06 Смертельная гонка 3 Скачать торрент  

Петька Гланц-Иващенко тоже сыграл там??! О дает а! )))



05-02-2013 04:31 Смертельная гонка 3 Скачать торрент  

самая нормальная это первая а все остальное просто отстой



07-04-2013 21:24 Смертельная гонка 3 Скачать торрент  

фильм на один раз посмотреть.



18-04-2013 17:38 Смертельная гонка 3 Скачать торрент  

какой нахрен 2013 год , два года назад смотрел его.



    Дорогой пользователь! Огромная просьба, поблагодарите релизера, оцените раздачу и оставьте свои комментарий, если Вы скачали Смертельная гонка 3 через торрент бесплатно!!
    Комментировать посты могут только пользователи прошедшие не сложную регистрацию
    Показать сообщения:    


    Смертельная гонка 3 через торрент
    Скачать бесплатно Смертельная гонка 3
    Смертельная гонка 3 скачать торрент
    Смертельная гонка 3 смотреть онлайн
    Cкачать фильм Смертельная гонка 3 бесплатно
    Смертельная гонка 3 скачать торрент в хорошем качестве
    Смертельная гонка 3 смотреть онлайн бесплатно в хорошем качестве
    Вы не можете начинать темы
    Вы не можете отвечать на сообщения
    Вы не можете редактировать свои сообщения
    Вы не можете удалять свои сообщения
    Вы не можете голосовать в опросах
    Вы не можете прикреплять файлы к сообщениям
    Вы можете скачивать файлы
    Смертельная гонка 3 / Death Race: Inferno [2013 г., боевик, триллер, криминал, HDRip, Дубляж, лицензия] смотреть онлайн, скачать торрент picoco.icu