2 сезон

iTunes

1 сезон

1

iTunes

iTunes

iTunes

1 сезон

RePack

30

ИГРА 18+

pack

ВАЖНО

!!Акция!!

Alien_RageХит недели

RePack

MK11
pack

Забери бонус

RePack

jed

!!Акция!!

Alien_Rage

RePack

fifa19

RePack

Assassins Creed: Odyssey

RePack

NEED FOR SPEED™ PAYBACK

4 сезон

9 сезон

Бесстыжие 9 сезон

Все сериалы

все сериалы на PB.wtf

RePack

FAR CRY 5
  

Смертельная гонка 3 / Death Race: Inferno (Unrated) (Роэль Рейн) [2013 г., боевик, триллер, криминал, BDRip 720p, DUB + Оригинал, лицензия] pb.wtf

Смертельная гонка 3 через торрент pb.wtf

Размер: 7.83 GB | Добавлен: 7 лет 8 мес. назад | Торрент скачан:423 раза
Скачать  

04-02-2013 14:08 Смертельная гонка 3 Скачать торрент  



Смертельная гонка 3 / Death Race: Inferno

Год выпуска: 2013
Страна: США
Жанр: боевик, триллер, криминал
Продолжительность: 01:45:12
Перевод: Дубляж + Оригинал, Лицензия
Субтитры: Русские, английские

Режиссер: Роэль Рейн
Продюссер: Пол У. С. Андерсон, Джереми Болт, Майк Эллиот
Сценарий: Тони Гиглио

Мировой рейтинг IMDB 5.40 (3 792)


В ролях: Дэнни Трехо, Винг Реймз, Дюгрэй Скотт, Люк Госс, Танит Феникс, Робин Шоу, Фредерик Колер, Таня ван Граан, Лэнгли Кирквуд, Шон Майкл, Пётр Иващенко

Описание: Осужденный полицейский-убийца Карл Лукас, он же Франкенштейн, суперзвезда жестоких тюремных гонок на выживание, известных как Смертельная Гонка. Только одна победа отделяет его от получения свободы для себя и своей команды. Однако теперь Лукас оказался в совершенно новом, ещё более порочном соревновании. Сражаясь против властных закулисных сил и безжалостных противников, Лукас борется, чтобы спасти себя и свою команду в адской гонке в пустыне Калахари и получить свободу.
Доп. информация: Оригинальные чаптеры как на Blu-ray

Качество: BDRip 720p
Формат: MKV
Видео кодек: H.264
Аудио кодек: AC3
Видео: 1280 x 720 (1.778) at 23.976 fps AVC at 8700 Кбит/сек
Аудио#1: AC-3 at 448 Кбит/сек 6 каналов, 48,0 КГц DUB
Аудио#2: DTS at 1510 Кбит/сек 6 каналов, 48,0 КГц ENG
Релиз от: меня




Общее
Уникальный идентификатор : 248829250833590165748937383281529654904 (0xBB32C540EDC815E2AA38E612D5470E78)
Полное имя : C:Documents and SettingsAdminМои документыМои видеозаписиDeath.Race.Inferno.2013.D.BDRip.720p (1).mkv
Формат : Matroska
Версия формата : Version 4 / Version 2
Размер файла : 7,83 Гбайт
Продолжительность : 1 ч. 45 м.
Общий поток : 10,7 Мбит/сек
Название фильма : Sудья
Дата кодирования : UTC 2010-02-22 21:41:31
Программа кодирования : mkvmerge v5.9.0 ('On The Loose') built on Dec 9 2012 15:37:01
Библиотека кодирования : libebml v1.3.0 + libmatroska v1.4.0

Видео
Идентификатор : 1
Формат : AVC
Формат/Информация : Advanced Video Codec
Профиль формата : High@L4.1
Параметр CABAC формата : Да
Параметр ReFrames формата : 9 кадров
Режим смешивания : Header stripping
Идентификатор кодека : V_MPEG4/ISO/AVC
Продолжительность : 1 ч. 45 м.
Битрейт : 8700 Кбит/сек
Ширина : 1280 пикселей
Высота : 720 пикселей
Соотношение сторон : 16:9
Частота кадров : 23,976 кадра/сек
Цветовое пространство : YUV
Субдискретизация насыщенности : 4:2:0
Битовая глубина : 8 бит
Тип развёртки : Прогрессивная
Бит/(Пиксели*Кадры) : 0.394
Размер потока : 6,23 Гбайт (80%)
Заголовок : Death.Race.Inferno.2013.720p.BluRay.DTS.x264-EbP
Библиотека кодирования : x264 core 129 r2230 1cffe9f
Настройки программы : cabac=1 / ref=9 / deblock=1:-3:-3 / analyse=0x3:0x113 / me=tesa / subme=11 / psy=1 / psy_rd=1.05:0.00 / mixed_ref=1 / me_range=16 / chroma_me=1 / trellis=2 / 8x8dct=1 / cqm=0 / deadzone=21,11 / fast_pskip=0 / chroma_qp_offset=-2 / threads=12 / lookahead_threads=2 / sliced_threads=0 / nr=0 / decimate=0 / interlaced=0 / bluray_compat=0 / constrained_intra=0 / bframes=8 / b_pyramid=2 / b_adapt=2 / b_bias=0 / direct=3 / weightb=1 / open_gop=0 / weightp=2 / keyint=250 / keyint_min=23 / scenecut=40 / intra_refresh=0 / rc=2pass / mbtree=0 / bitrate=8700 / ratetol=1.0 / qcomp=0.60 / qpmin=0 / qpmax=69 / qpstep=4 / cplxblur=20.0 / qblur=0.5 / ip_ratio=1.40 / pb_ratio=1.30 / aq=1:0.60
Язык : English
Default : Да
Forced : Да

Аудио #1
Идентификатор : 2
Формат : AC-3
Формат/Информация : Audio Coding 3
Расширение режима : CM (complete main)
Режим смешивания : Header stripping
Идентификатор кодека : A_AC3
Продолжительность : 1 ч. 45 м.
Вид битрейта : Постоянный
Битрейт : 448 Кбит/сек
Каналы : 6 каналов
Расположение каналов : Front: L C R, Side: L R, LFE
Частота : 48,0 КГц
Битовая глубина : 16 бит
Метод сжатия : С потерями
Размер потока : 337 Мбайт (4%)
Заголовок : AC-3 at 448 Кбит/сек
Язык : Russian
Default : Да
Forced : Да

Аудио #2
Идентификатор : 3
Формат : DTS
Формат/Информация : Digital Theater Systems
Режим смешивания : Header stripping
Идентификатор кодека : A_DTS
Продолжительность : 1 ч. 45 м.
Вид битрейта : Постоянный
Битрейт : 1510 Кбит/сек
Каналы : 6 каналов
Расположение каналов : Front: L C R, Side: L R, LFE
Частота : 48,0 КГц
Битовая глубина : 24 бит
Метод сжатия : С потерями
Размер потока : 1,11 Гбайт (14%)
Заголовок : DTS 5.1 @ 1536 kbps
Язык : English
Default : Нет
Forced : Нет

Текст #1
Идентификатор : 4
Формат : UTF-8
Идентификатор кодека : S_TEXT/UTF8
Идентификатор кодека/Информация : UTF-8 Plain Text
Заголовок : Forced
Язык : Russian
Default : Да
Forced : Да

Текст #2
Идентификатор : 5
Формат : UTF-8
Идентификатор кодека : S_TEXT/UTF8
Идентификатор кодека/Информация : UTF-8 Plain Text
Заголовок : Full
Язык : Russian
Default : Нет
Forced : Нет

Текст #3
Идентификатор : 6
Формат : UTF-8
Идентификатор кодека : S_TEXT/UTF8
Идентификатор кодека/Информация : UTF-8 Plain Text
Язык : English
Default : Нет
Forced : Нет

Меню
00:00:00.000 : en:00:00:00.000
00:06:33.310 : en:00:06:33.310
00:09:58.389 : en:00:09:58.389
00:14:00.131 : en:00:14:00.131
00:20:48.330 : en:00:20:48.330
00:25:09.216 : en:00:25:09.216
00:28:37.382 : en:00:28:37.382
00:34:01.790 : en:00:34:01.790
00:40:18.875 : en:00:40:18.875
00:44:49.645 : en:00:44:49.645
00:49:13.492 : en:00:49:13.492
00:55:55.394 : en:00:55:55.394
01:01:29.394 : en:01:01:29.394
01:06:34.574 : en:01:06:34.574
01:11:39.045 : en:01:11:39.045
01:18:06.890 : en:01:18:06.890
01:23:06.398 : en:01:23:06.398
01:28:36.102 : en:01:28:36.102
01:32:48.855 : en:01:32:48.855
01:39:17.410 : en:01:39:17.410


Смертельная гонка 3 скачать торрент


pb.wtf



Скачать Смертельная гонка 3 через торрент http://pic.kartinco.top/images/1/wehsvh498n.jpg Скачать фильм Смертельная гонка 3 через торрент бесплантно в хорошем качестве Описание: Осужденный полицейский-убийца Карл Лукас, он же Франкенштейн, суперзвезда жестоких тюремных гонок на выживание, известных как ... 10 10 3
Info! Золотая раздача, скачанное не засчитывается.
Торрент: Зарегистрирован [2013-02-04 14:08] · скачан: 423 раз
Статус: √ проверено
Размер: 7.83 GB
Как cкачать? Как скачать Смертельная гонка 3 через торрент | qTorrent

% Раздел Тема Автор DL S | L
Фильмы 2013 [DVDrip, WEB-DLRip, HDrip] [ 1.46 GB ] Смертельная гонка 3 / Death Race: Inferno [2013 HDRip DUB лицензия] oleg8 Скачать
1 | 0
Фильмы 2013 [DVDrip, WEB-DLRip, HDrip] [ 2.05 GB ] Смертельная гонка 3 / Death Race: Inferno [2013 HDRip DUB / лицензия!] Mr. Freeman Скачать
1 | 0
Фильмы 2012 [ 1.92 GB ] Смертельная гонка 3: Ад / Death Race: Inferno [2012 BDRip-AVC DUB лицензия] Sудья Скачать
1 | 0
Фильмы [HD 720p, 1080p] (Хороший звук DUB, MVO) [ 14.79 GB ] Смертельная гонка 3 / Death Race: Inferno [Unrated Extended Cut] [2013 BDRip 1080p DUB + Оригинал лицензия] Sудья Скачать
1 | 0
Фильмы (DVD фильмы) [ 7.2 GB ] Смертельная гонка 3: Ад / Death Race: Inferno [2013 DVD9] R5 voovaz Скачать
1 | 0
Фильмы без перевода [ 698 MB ] Смертельная гонка 3 / Death Race: Inferno [2013 WEBRip Оригинал [ENG] ] ALIK1989 Скачать
1 | 0

28-11-2019 20:33  

Отключить всю рекламу на сайте

04-02-2013 14:42 Смертельная гонка 3 Скачать торрент  

Стоит сомтреть или такая же шляпа как и 2 часть?pb.wtf



04-02-2013 15:34 Смертельная гонка 3 Скачать торрент  

Даненько о нем слышал, качну гляну НО! Поч Франкеншейн жив? Если он разбился или как он там здох уже непомню.pb.wtf



04-02-2013 18:34 Смертельная гонка 3 Скачать торрент  

по логике это приквел!pb.wtf



04-02-2013 21:03 Смертельная гонка 3 Скачать торрент  

Ну как бы 2 часть по логике была приквел. И там место действия в 1 и 2 частях была одна и таже тюрьма. Тут же все актеры живы здоровы и место действия Африка О_оpb.wtf



    Дорогой пользователь! Огромная просьба, поблагодарите релизера, оцените раздачу и оставьте свои комментарий, если Вы скачали Смертельная гонка 3 через торрент бесплатно! Внесите свою лепту в развитие PiratBit!
    Комментировать посты могут только пользователи прошедшие не сложную регистрацию
    Показать сообщения:    

    Смертельная гонка 3 через торрент
    Скачать бесплатно Смертельная гонка 3
    Смертельная гонка 3 скачать торрент
    Смертельная гонка 3 смотреть онлайн
    Cкачать фильм Смертельная гонка 3 бесплатно
    Смертельная гонка 3 скачать торрент в хорошем качестве
    Смертельная гонка 3 смотреть онлайн бесплатно в хорошем качестве


    Вы не можете начинать темы
    Вы не можете отвечать на сообщения
    Вы не можете редактировать свои сообщения
    Вы не можете удалять свои сообщения
    Вы не можете голосовать в опросах
    Вы не можете прикреплять файлы к сообщениям
    Вы можете скачивать файлы