2 сезон

iTunes

MVO

1

2 сезон

iTunes

iTunes

1 сезон

RePack

30

Новинка

ВАЖНО

ИГРА 18+

pack

RePack

MK11
pack

Легкие деньги

RePack

jed

RePack

fifa19

RePack

RDR2

RePack

NEED FOR SPEED™ PAYBACK

4 сезон

9 сезон

Бесстыжие 9 сезон

Все сериалы

все сериалы на PB.wtf

RePack

FAR CRY 5

Anonymous, доброе утро, мы не успеваем собрать деньги на оплату серверов за декабрь и январь, помогите нам пожалуйста в это трудное время. В качестве благодарности мы отключим Вам всю рекламу на сайте (укажите свой ник в строку Ваше имя)!

×
  
Magnet ссылка

Храбрый плавник / Back to the Sea (Том Лу / Thom Lu) [2012, мультфильм, DVD9] R5 pb.wtf

Храбрый плавник через торрент pb.wtf

Размер: 6.48 GB | Добавлен: 7 лет 11 мес. назад | Торрент скачан:110 раз
Скачать  

04-02-2013 16:56 Храбрый плавник Скачать торрент  


Храбрый плавник / Back to the Sea
«Приключения начинаются!»
Страна: Китай, Канада
Студия: Glory and Dream Studios, IndustryWorks Pictures
Жанр: мультфильм
Год выпуска: 2012
Мировая премьера: 27 января 2012
Российская премьера: 24 января 2013, 3D
Дата выхода DVD: 5 февраля 2013
Дата выхода Blu-Ray: 5 февраля 2013
Продолжительность: 01:33:37
Перевод: Профессиональный (дублированный) [Лицензия]
Cубтитры: нет
Оригинальная аудиодорожка: нет
Режиссер: Том Лу / Thom Lu
Роли озвучивали: Tим Карри, Марк Хэмилл, Том Кенни, Кристиан Слэйтер, Кэт Сауси, Мэттью Кинг
Описание: В прибрежных водах Нью-Йорка живет Кевин — маленькая летучая рыбка. Каждый день Кевин играет со своими друзьями и мечтает попасть на остров Барбадос, в королевство летучих рыб, но его родители считают эти мечты глупыми.
Однажды, чтобы похвастаться, он отправляется к подводной Скале Славы, достать фамильную реликвию семьи — огромную жемчужину, и попадает в рыболовные сети. Кевин вместе с драгоценностью отправляется в аквариум рыбного ресторанчика, где его ждет страшная судьба — стать изысканным деликатесом. Другие обитатели аквариума верят в то, что исчезающие рыбы становятся людьми, поэтому ждут с нетерпением, когда за ними придут. Для того, чтобы спасти своих новых друзей от смерти и вернуться домой с фамильной жемчужиной, Кевину предстоит показать всю свою храбрость.

Бонусы: нет

Релиз группы:
Качество: DVD9 R5
Формат: DVD-Video
Видео кодек: MPEG2
Аудио кодек: AC3
Видео: PAL 16:9 (720x576(0.868)) MPEG Video, 25,000 кадр/сек, 9000 Кбит/сек
Аудио: Russian (Dolby AC3, 6 ch) 448 Кбит/сек, 48,0 КГц



Title: Hrabryj.plavnik.2012.DVD9
Size: 6.48 Gb ( 6 799 258,00 KBytes ) - DVD-9
Enabled regions: 1, 2, 3, 4, 5, 6, 7, 8

VTS_01 :
Play Length: 01:33:37
Video: PAL 16:9 (720x576) VBR, Auto Letterboxed
Audio:
Russian (Dolby AC3, 6 ch)

* Menus Information *

VIDEO_TS Menu
Video:
PAL 16:9 (720x576) VBR
Auto Letterboxed
Audio:
Not specified (Dolby AC3, 2 ch)
Russian Language Unit :
Title Menu

VTS_01 Menu
Video:
PAL 16:9 (720x576) VBR
Auto Letterboxed
Audio:
Not specified (Dolby AC3, 2 ch)
Russian Language Unit :
Root Menu
Общее
Полное имя : J:Новинки 2012Hrabryj.plavnik.2012.DVD9VIDEO_TSVTS_01_1.VOB
Формат : MPEG-PS
Размер файла : 1024 Мбайт
Продолжительность : 14 м.
Общий поток : 9600 Кбит/сек

Видео
Идентификатор : 224 (0xE0)
Формат : MPEG Video
Версия формата : Version 2
Профиль формата : Main@Main
Параметр BVOP формата : Да
Параметр матрицы формата : Выборочная
Параметр GOP формата : M=3, N=15
Продолжительность : 14 м.
Битрейт : 9000 Кбит/сек
Ширина : 720 пикселей
Высота : 576 пикселей
Соотношение сторон : 16:9
Частота кадров : 25,000 кадров/сек
Стандарт вещания : PAL
Цветовое пространство : YUV
Субдискретизация насыщенности : 4:2:0
Битовая глубина : 8 бит
Тип развёртки : Чересстрочная
Порядок развёртки : Верхнее поле первое
Метод сжатия : С потерями
Бит/(Пиксели*Кадры) : 0.868
Размер потока : 956 Мбайт (93%)

Аудио
Идентификатор : 189 (0xBD)-128 (0x80)
Формат : AC-3
Формат/Информация : Audio Coding 3
Расширение режима : CM (complete main)
Параметр Endianness формата : Big
Режим смешивания : DVD-Video
Продолжительность : 14 м.
Вид битрейта : Постоянный
Битрейт : 448 Кбит/сек
Каналы : 6 каналов
Расположение каналов : Front: L C R, Side: L R, LFE
Частота : 48,0 КГц
Битовая глубина : 16 бит
Метод сжатия : С потерями
Размер потока : 47,8 Мбайт (5%)










pb.wtf



Скачать Храбрый плавник через торрент http://i52.fastpic.ru/big/2013/0204/dd/13f08abf0e011ab11a6106e484319cdd.jpg Скачать фильм Храбрый плавник через торрент бесплантно в хорошем качестве Описание: В прибрежных водах Нью-Йорка живет Кевин — маленькая летучая рыбка. Каждый день Кевин играет со своими друзьями и мечтает попасть ... 5 10 1
Info! Золотая раздача, скачанное не засчитывается.
Торрент: Зарегистрирован [2013-02-04 16:56] · скачан: 110 раз
Статус: √ проверено
Размер: 6.48 GB
Как cкачать? Как скачать Храбрый плавник через торрент | UTorrent

28-11-2019 20:33  

Отключить всю рекламу на сайте

    Дорогой пользователь! Огромная просьба, поблагодарите релизера, оцените раздачу и оставьте свои комментарий, если Вы скачали Храбрый плавник через торрент бесплатно! Внесите свою лепту в развитие PiratBit!
    Комментировать посты могут только пользователи прошедшие не сложную регистрацию
    Показать сообщения:    

    Храбрый плавник через торрент
    Скачать бесплатно Храбрый плавник
    Храбрый плавник скачать торрент
    Храбрый плавник смотреть онлайн
    Cкачать фильм Храбрый плавник бесплатно
    Храбрый плавник скачать торрент в хорошем качестве
    Храбрый плавник смотреть онлайн бесплатно в хорошем качестве


    Вы не можете начинать темы
    Вы не можете отвечать на сообщения
    Вы не можете редактировать свои сообщения
    Вы не можете удалять свои сообщения
    Вы не можете голосовать в опросах
    Вы не можете прикреплять файлы к сообщениям
    Вы можете скачивать файлы