1 сезон

3 сезон

iTunes

1

Line

MVO

iTunes

13

1 сезон

RePack

30

Deluxe

pack

Лицензия

ВАЖНО

ИГРА 18+

pack

RePack

MK11

RePack

jed

RePack

fifa19

RePack

RDR2

RePack

NEED FOR SPEED™ PAYBACK

4 сезон

9 сезон

Бесстыжие 9 сезон

Все сериалы

все сериалы на PB.wtf

RePack

FAR CRY 5

Anonymous, доброй ночи, мы катастрофически не успеваем собрать деньги на оплату серверов, помогите нам пожалуйста 5,10,15р., для нас важна любая помощь . В качестве благодарности мы отключим Вам всю рекламу на сайте (укажите свой ник в строку Ваше имя)!

×
  
Magnet ссылка

Самый пьяный округ в мире / Lawless (Джон Хиллкоут / John Hillcoat) [2012, драма, криминал, DVD9] R5 pb.wtf

Самый пьяный округ в мире через торрент pb.wtf

Размер: 7.71 GB | Добавлен: 8 лет 5 мес. назад | Торрент скачан:82 раза
Скачать  

04-02-2013 20:01 Самый пьяный округ в мире Скачать торрент  


Самый пьяный округ в мире / Lawless
«Преступники станут легендой»
Страна: США
Студия: Annapurna Pictures, Benaroya Pictures, Blum Hanson Allen Films, FilmNation Entertainment, Pie Films Inc., Red Wagon Productions, Yucaipa Films
Жанр: драма, криминал
Год выпуска: 2012
Мировая премьера: 19 мая 2012
Российская премьера: 6 декабря 2012
Дата выхода DVD: 29 января 2013
Дата выхода Blu-Ray: 29 января 2013
Продолжительность: 01:51:00
Перевод: Профессиональный (дублированный) [Лицензия]
Cубтитры: русские
Оригинальная аудиодорожка: английский
Режиссер: Джон Хиллкоут / John Hillcoat
В ролях: Шайа ЛаБаф, Том Харди, Гари Олдман, Джессика Честейн, Гай Пирс, Джейсон Кларк, Миа Васиковска, Дэйн ДеХаан, Крис МакГарри
Описание: Действие в картине разворачивается на американском Юге во времена сухого закона и Великой Депрессии. В центре сюжета — семья Бондурант, три брата, Джек, Форрест и Говард, которые занимаются запрещенным в то время бизнесом, бутлегерством.
Оптимистично настроенный Джек, самый молодой из братьев, надеется с помощью бутлегерства заработать денег и произвести впечатление на свою девушку Берту. В это же время Форрест, напротив, настроен очень мрачно, он молчалив и подозрителен, а Говарду к тому же часто приходится иметь дело с врагами незаконного семейного бизнеса, в лице которых выступают коррумпированные местные полицейские.

Бонусы: История семьи Бондурант, округ Франклин, штат Вирджиния, история "Пьяного округа", ролик, удаленные сцены

Качество: DVD9 R5
Формат: DVD-Video
Видео кодек: MPEG2
Аудио кодек: AC3 + DTS
Видео: PAL 16:9 (720x576(0.487)) MPEG Video, 25,000 кадр/сек, 5049 Кбит/сек
Аудио #1: Russian (Dolby AC3, 6 ch) 384 Кбит/сек, 48,0 КГц
Аудио #2: English (Dolby AC3, 6 ch) 384 Кбит/сек, 48,0 КГц
Аудио #3: Russian (DTS, 6 ch) 768 Кбит/сек, 48,0 КГц
Аудио #4: Ukrainian (Dolby AC3, 6 ch) 384 Кбит/сек, 48,0 КГц



Title: Samyj.pjanyj.okrug.v.mire.2012.DVD9
Size: 7.71 Gb ( 8 079 798,00 KBytes ) - DVD-9
Enabled regions: 1, 2, 3, 4, 5, 6, 7, 8

VTS_01 :
Play Length: 00:00:23
Video: PAL 4:3 (720x576) VBR

VTS_02 :
Play Length: 00:12:12
Video: PAL 16:9 (720x576) VBR, Auto Letterboxed
Audio:
Russian (Dolby AC3, 2 ch)
English (Dolby AC3, 2 ch)

VTS_03 :
Play Length: 00:05:55
Video: PAL 16:9 (720x576) VBR, Auto Letterboxed
Audio:
Russian (Dolby AC3, 2 ch)
English (Dolby AC3, 2 ch)

VTS_04 :
Play Length: 00:20:38
Video: PAL 16:9 (720x576) VBR, Auto Letterboxed
Audio:
Russian (Dolby AC3, 2 ch)
English (Dolby AC3, 2 ch)

VTS_05 :
Play Length: 00:01:34
Video: PAL 16:9 (720x576) VBR, Auto Letterboxed
Audio:
Russian (Dolby AC3, 2 ch)
English (Dolby AC3, 2 ch)

VTS_06 :
Play Length: 00:07:33
Video: PAL 16:9 (720x576) VBR, Auto Letterboxed
Audio:
Russian (Dolby AC3, 2 ch)
English (Dolby AC3, 2 ch)

VTS_07 :
Play Length: 00:02:25
Video: PAL 4:3 (720x576) VBR
Audio:
Russian (Dolby AC3, 2 ch)
Russian (Dolby AC3, 2 ch)

VTS_08 :
Play Length: 00:02:28
Video: PAL 4:3 (720x576) VBR
Audio:
Russian (Dolby AC3, 2 ch)
Russian (Dolby AC3, 2 ch)

VTS_09 :
Play Length: 00:02:13
Video: PAL 4:3 (720x576) VBR
Audio:
Russian (Dolby AC3, 2 ch)
Russian (Dolby AC3, 2 ch)

VTS_10 :
Play Length: 01:51:00
Video: PAL 16:9 (720x576) VBR, Auto Pan&Scan, Auto Letterboxed
Audio:
Russian (Dolby AC3, 6 ch)
English (Dolby AC3, 6 ch)
Russian (DTS, 6 ch)
Ukrainian (Dolby AC3, 6 ch)
Subtitles:
Russian

* Menus Information *

VIDEO_TS Menu
Video:
PAL 16:9 (720x576) VBR
Auto Pan&Scan, Auto Letterboxed
English Language Unit :
Title Menu

VTS_01 Menu
Video:
PAL 16:9 (720x576) VBR
Auto Letterboxed
Audio:
Not specified (Dolby AC3, 2 ch)
English Language Unit :
Root Menu

VTS_02 Menu
Video:
PAL 4:3 (720x576) VBR
English Language Unit :
Root Menu

VTS_03 Menu
Video:
PAL 4:3 (720x576) VBR
English Language Unit :
Root Menu

VTS_04 Menu
Video:
PAL 4:3 (720x576) VBR
English Language Unit :
Root Menu

VTS_05 Menu
Video:
PAL 4:3 (720x576) VBR
English Language Unit :
Root Menu

VTS_06 Menu
Video:
PAL 4:3 (720x576) VBR
English Language Unit :
Root Menu

VTS_07 Menu
Video:
PAL 4:3 (720x576) VBR
English Language Unit :
Root Menu

VTS_08 Menu
Video:
PAL 4:3 (720x576) VBR
English Language Unit :
Root Menu

VTS_09 Menu
Video:
PAL 4:3 (720x576) VBR
English Language Unit :
Root Menu

VTS_10 Menu
Video:
PAL 4:3 (720x576) VBR
English Language Unit :
Root Menu
Общее
Полное имя : J:Новинки 2012Samyj.pjanyj.okrug.v.mire.2012.DVD9VIDEO_TSVTS_10_1.VOB
Формат : MPEG-PS
Размер файла : 1024 Мбайт
Продолжительность : 20 м.
Режим общего битрейта : Переменный
Общий поток : 7096 Кбит/сек

Видео
Идентификатор : 224 (0xE0)
Формат : MPEG Video
Версия формата : Version 2
Профиль формата : Main@Main
Параметр BVOP формата : Да
Параметр матрицы формата : По умолчанию
Параметр GOP формата : M=3, N=12
Продолжительность : 20 м.
Вид битрейта : Переменный
Битрейт : 5049 Кбит/сек
Максимальный битрейт : 7700 Кбит/сек
Ширина : 720 пикселей
Высота : 576 пикселей
Соотношение сторон : 16:9
Частота кадров : 25,000 кадров/сек
Стандарт вещания : PAL
Цветовое пространство : YUV
Субдискретизация насыщенности : 4:2:0
Битовая глубина : 8 бит
Тип развёртки : Прогрессивная
Метод сжатия : С потерями
Бит/(Пиксели*Кадры) : 0.487
Размер потока : 729 Мбайт (71%)

Аудио #1
Идентификатор : 189 (0xBD)-128 (0x80)
Формат : AC-3
Формат/Информация : Audio Coding 3
Расширение режима : CM (complete main)
Параметр Endianness формата : Big
Режим смешивания : DVD-Video
Продолжительность : 20 м.
Вид битрейта : Постоянный
Битрейт : 384 Кбит/сек
Каналы : 6 каналов
Расположение каналов : Front: L C R, Side: L R, LFE
Частота : 48,0 КГц
Битовая глубина : 16 бит
Метод сжатия : С потерями
Задержка видео : -80 мс.
Размер потока : 55,4 Мбайт (5%)

Аудио #2
Идентификатор : 189 (0xBD)-129 (0x81)
Формат : AC-3
Формат/Информация : Audio Coding 3
Расширение режима : CM (complete main)
Параметр Endianness формата : Big
Режим смешивания : DVD-Video
Продолжительность : 20 м.
Вид битрейта : Постоянный
Битрейт : 384 Кбит/сек
Каналы : 6 каналов
Расположение каналов : Front: L C R, Side: L R, LFE
Частота : 48,0 КГц
Битовая глубина : 16 бит
Метод сжатия : С потерями
Задержка видео : -80 мс.
Размер потока : 55,4 Мбайт (5%)

Аудио #3
Идентификатор : 189 (0xBD)-131 (0x83)
Формат : AC-3
Формат/Информация : Audio Coding 3
Расширение режима : CM (complete main)
Параметр Endianness формата : Big
Режим смешивания : DVD-Video
Продолжительность : 20 м.
Вид битрейта : Постоянный
Битрейт : 384 Кбит/сек
Каналы : 6 каналов
Расположение каналов : Front: L C R, Side: L R, LFE
Частота : 48,0 КГц
Битовая глубина : 16 бит
Метод сжатия : С потерями
Задержка видео : -80 мс.
Размер потока : 55,4 Мбайт (5%)

Аудио #4
Идентификатор : 189 (0xBD)-138 (0x8A)
Формат : DTS
Формат/Информация : Digital Theater Systems
Режим : 16
Параметр Endianness формата : Big
Режим смешивания : DVD-Video
Продолжительность : 20 м.
Вид битрейта : Постоянный
Битрейт : 755 Кбит/сек
Каналы : 6 каналов
Расположение каналов : Front: L C R, Side: L R, LFE
Частота : 48,0 КГц
Битовая глубина : 24 бит
Метод сжатия : С потерями
Задержка видео : -80 мс.
Размер потока : 109 Мбайт (11%)

Текст
Идентификатор : 189 (0xBD)-32 (0x20)
Формат : RLE
Формат/Информация : Run-length encoding
Режим смешивания : DVD-Video




pb.wtf



Скачать Самый пьяный округ в мире через торрент http://i52.fastpic.ru/big/2013/0130/e9/c66b28d0d345becbb147a07c4a6389e9.jpg Скачать фильм Самый пьяный округ в мире через торрент бесплантно в хорошем качестве Описание: Действие в картине разворачивается на американском Юге во времена сухого закона и Великой Депрессии. В центре сюжета — семья ... 10 10 5
Info! Золотая раздача, скачанное не засчитывается.
Торрент: Зарегистрирован [2013-02-04 20:01] · скачан: 82 раз
Статус: √ проверено
Размер: 7.71 GB
Как cкачать? Как скачать Самый пьяный округ в мире через торрент | UTorrent

28-11-2019 20:33  

Отключить всю рекламу на сайте

    Дорогой пользователь! Огромная просьба, поблагодарите релизера, оцените раздачу и оставьте свои комментарий, если Вы скачали Самый пьяный округ в мире через торрент бесплатно! Внесите свою лепту в развитие PiratBit!
    Комментировать посты могут только пользователи прошедшие не сложную регистрацию
    Показать сообщения:    

    Самый пьяный округ в мире через торрент
    Скачать бесплатно Самый пьяный округ в мире
    Самый пьяный округ в мире скачать торрент
    Самый пьяный округ в мире смотреть онлайн
    Cкачать фильм Самый пьяный округ в мире бесплатно
    Самый пьяный округ в мире скачать торрент в хорошем качестве
    Самый пьяный округ в мире смотреть онлайн бесплатно в хорошем качестве


    Вы не можете начинать темы
    Вы не можете отвечать на сообщения
    Вы не можете редактировать свои сообщения
    Вы не можете удалять свои сообщения
    Вы не можете голосовать в опросах
    Вы не можете прикреплять файлы к сообщениям
    Вы можете скачивать файлы