Ссылка на приватное зеркало нашего сайта всего за 1$. Внимание количество ограничено!!!

2 сезон

iTunes

1 сезон

1

2 сезон

2 сезон

iTunes

1 сезон

RePack

30

Новинка

ВАЖНО

ИГРА 18+

pack

RePack

MK11
pack

Забери бонус

RePack

jed

!!Акция!!

Alien_Rage

RePack

fifa19

RePack

Assassins Creed: Odyssey

RePack

NEED FOR SPEED™ PAYBACK

4 сезон

9 сезон

Бесстыжие 9 сезон

Все сериалы

все сериалы на PB.wtf

RePack

FAR CRY 5
  

12 раундов / 12 Rounds (Ренни Харлин) [2009 г., боевик, триллер, криминал, BD-Remux, DUB, лицензия] pb.wtf

12 раундов через торрент pb.wtf

Размер: 25.11 GB | Добавлен: 7 лет 9 мес. назад | Торрент скачан:47 раз
Скачать  

06-02-2013 10:10 12 раундов Скачать торрент  

12 раундов / 12 Rounds

Год выпуска: 2009
Страна: США
Жанр: боевик, триллер, криминал
Продолжительность: 01:47:56
Перевод: Дубляж, Лицензия

Режиссер: Ренни Харлин
Продюссер: Марк Гордон, Майкл Лэйк, Джош МакЛафлин
Сценарий: Дэниэл Кунка

Бюджет: $22 000 000
Премьера в мире: 19 марта 2009

Мировой рейтинг IMDB 5.50 (15 247)


В ролях: Джон Сина, Эйден Гиллен, Эшли Скотт, Стив Харрис, Брайан Дж. Уайт, Гонсало Менендес, Тейлор Коул, Кайл Расселл Клементс, Питер Нэви Туясосопо, Трэвис Дэвис, Олег Чернов, Сергей Дьячков, Ирина Горячева, Артур Ваха, Александр Лушин

Описание: Дэнни Фишер, новоорлеанский полицейский, единолично арестовывает Майлса Джексона, одного из наиболее опасных и разыскиваемых преступников в мире. Однако при этом страшный несчастный случай уносит жизнь подруги Майлса. Годом позже жаждущий мести Джексон совершает побег из тюрьмы и похищает подругу Дэнни. Вынужденный принять участие в 12 раундах опасных игр, расставленных по всему городу, Дэнни будет делать все, чтобы остановить больную игру этого сумасшедшего и достигнуть своей истинной цели прежде, чем пострадают невинные люди, а любовь всей его жизни уйдет навсегда.

Качество: BD-Remux
Формат: BDAV
Видео кодек: AVC
Аудио кодек: DTS, AC3
Видео: MPEG-4 AVC, ~25635 Кбит/с, 1920x1080, 23.976 кадр/с
Аудио#1: Русский ( DTS, 6 ch, 755 Кбит/с, 48.0 КГц, 24 бит)
Аудио#2: Украинский ( AC3, 6 ch, 384 Кбит/с, 48.0 КГц, 16 бит)
Аудио#3: Английский ( DTS HD MA, 6 ch, 1509 Кбит/с, 48.0 КГц, 24 бит)
Аудио#4: Английский ( AC3, 2 ch, 224 Кбит/с, 48.0 КГц, 16 бит)
Субтитры: Русские, украинские, английские





Общее
Идентификатор : 1 (0x1)
Полное имя : E:12.RBDMVSTREAM\00000.m2ts
Формат : BDAV
Формат/Информация : Blu-ray Video
Размер файла : 25,1 Гбайт
Продолжительность : 1 ч. 47 м.
Режим общего битрейта : Переменный
Общий поток : 33,3 Мбит/сек
Максимальный общий битрейт : 35,5 Мбит/сек

Видео
Идентификатор : 4113 (0x1011)
Идентификатор меню : 1 (0x1)
Формат : AVC
Формат/Информация : Advanced Video Codec
Профиль формата : High@L4.1
Параметр CABAC формата : Да
Параметр ReFrames формата : 2 кадра
Идентификатор кодека : 27
Продолжительность : 1 ч. 47 м.
Вид битрейта : Переменный
Ширина : 1920 пикселей
Высота : 1080 пикселей
Соотношение сторон : 16:9
Частота кадров : 23,976 кадра/сек
Цветовое пространство : YUV
Субдискретизация насыщенности : 4:2:0
Битовая глубина : 8 бит
Тип развёртки : Прогрессивная

Аудио #1
Идентификатор : 4352 (0x1100)
Идентификатор меню : 1 (0x1)
Формат : DTS
Формат/Информация : Digital Theater Systems
Режим : 16
Параметр Endianness формата : Big
Идентификатор кодека : 130
Продолжительность : 1 ч. 47 м.
Вид битрейта : Постоянный
Битрейт : 755 Кбит/сек
Каналы : 6 каналов
Расположение каналов : Front: L C R, Side: L R, LFE
Частота : 48,0 КГц
Битовая глубина : 24 бит
Метод сжатия : С потерями
Размер потока : 583 Мбайт (2%)
Язык : Russian

Аудио #2
Идентификатор : 4353 (0x1101)
Идентификатор меню : 1 (0x1)
Формат : AC-3
Формат/Информация : Audio Coding 3
Расширение режима : CM (complete main)
Параметр Endianness формата : Big
Идентификатор кодека : 129
Продолжительность : 1 ч. 47 м.
Вид битрейта : Постоянный
Битрейт : 384 Кбит/сек
Каналы : 6 каналов
Расположение каналов : Front: L C R, Side: L R, LFE
Частота : 48,0 КГц
Битовая глубина : 16 бит
Метод сжатия : С потерями
Размер потока : 296 Мбайт (1%)
Язык : Ukrainian

Аудио #3
Идентификатор : 4354 (0x1102)
Идентификатор меню : 1 (0x1)
Формат : DTS
Формат/Информация : Digital Theater Systems
Профиль формата : MA / Core
Режим : 16
Параметр Endianness формата : Big
Режим смешивания : Stream extension
Идентификатор кодека : 134
Продолжительность : 1 ч. 47 м.
Вид битрейта : Переменный
Битрейт : Неизвестно / 1509 Кбит/сек
Каналы : 6 каналов
Расположение каналов : Front: L C R, Side: L R, LFE
Частота : 48,0 КГц
Битовая глубина : 24 бит
Метод сжатия : Без потерь / Lossy
Язык : English

Аудио #4
Идентификатор : 4355 (0x1103)
Идентификатор меню : 1 (0x1)
Формат : AC-3
Формат/Информация : Audio Coding 3
Расширение режима : CM (complete main)
Параметр Endianness формата : Big
Идентификатор кодека : 129
Продолжительность : 1 ч. 47 м.
Вид битрейта : Постоянный
Битрейт : 224 Кбит/сек
Каналы : 2 канала
Расположение каналов : Front: L R
Частота : 48,0 КГц
Битовая глубина : 16 бит
Метод сжатия : С потерями
Размер потока : 173 Мбайт (1%)
Язык : English

Аудио #5
Идентификатор : 4356 (0x1104)
Идентификатор меню : 1 (0x1)
Формат : AC-3
Формат/Информация : Audio Coding 3
Расширение режима : CM (complete main)
Параметр Endianness формата : Big
Идентификатор кодека : 129
Продолжительность : 1 ч. 47 м.
Вид битрейта : Постоянный
Битрейт : 224 Кбит/сек
Каналы : 2 канала
Расположение каналов : Front: L R
Частота : 48,0 КГц
Битовая глубина : 16 бит
Метод сжатия : С потерями
Размер потока : 173 Мбайт (1%)
Язык : English

Текст #1
Идентификатор : 4608 (0x1200)
Идентификатор меню : 1 (0x1)
Формат : PGS
Идентификатор кодека : 144
Язык : Russian

Текст #2
Идентификатор : 4609 (0x1201)
Идентификатор меню : 1 (0x1)
Формат : PGS
Идентификатор кодека : 144
Язык : Ukrainian

Текст #3
Идентификатор : 4610 (0x1202)
Идентификатор меню : 1 (0x1)
Формат : PGS
Идентификатор кодека : 144
Язык : Russian

Текст #4
Идентификатор : 4611 (0x1203)
Идентификатор меню : 1 (0x1)
Формат : PGS
Идентификатор кодека : 144
Язык : Ukrainian

Текст #5
Идентификатор : 4612 (0x1204)
Идентификатор меню : 1 (0x1)
Формат : PGS
Идентификатор кодека : 144
Язык : English


12 раундов скачать торрент


pb.wtf



Скачать 12 раундов через торрент http://i51.fastpic.ru/big/2013/0206/8b/e9c347a70cbf1ad128c2fefc024fe78b.jpg Скачать фильм 12 раундов через торрент бесплантно в хорошем качестве Описание: Дэнни Фишер, новоорлеанский полицейский, единолично арестовывает Майлса Джексона, одного из наиболее опасных и разыскиваемых ... 5 10 1
Info! Золотая раздача, скачанное не засчитывается.
Торрент: Зарегистрирован [2013-02-06 10:10] · скачан: 47 раз
Статус: √ проверено
Размер: 25.11 GB
Как cкачать? Как скачать 12 раундов через торрент | qTorrent

% Раздел Тема Автор DL S | L
T Фильмы (WEB-DL 720p, 1080p) [ 2.88 GB ] 12 раундов 3 / 12 Rounds 3: Lockdown [2015 WEB-DL 720p] VO Ворон Скачать
2 | 0
Фильмы [HD 720p, 1080p] (Хороший звук DUB, MVO) [ 12.98 GB ] 12 раундов / 12 Rounds [2009 BDRip 1080p by msltel] DUB AVO msltel Скачать
1 | 0
Фильмы [HD 720p, 1080p] (Хороший звук DUB, MVO) [ 4.94 GB ] 12 раундов / 12 Rounds [2009 BDRip 720p by msltel] DUB AVO msltel Скачать
1 | 0
T Фильмы (мультфильмы) cо спонсором показа (Новинки AVI/MKV) [ 1.37 GB ] 12 раундов 3 / 12 Rounds 3: Lockdown [2015 HDRip] MVO [Синема УС] bober100 Скачать
1 | 0
Фильмы с авторской озвучкой [ 1.47 GB ] 12 раундов / 12 Rounds [2009 HDRip] [Расширенная версия / Unrated] [AVO] killermax2013 Скачать
1 | 0
T Фильмы 2015 (Звук TS, Cam, VO, DVO) [ 1.46 GB ] 12 раундов 3 / 12 Rounds 3: Lockdown [2015 WEB-DLRip] VO Ворон Скачать
1 | 0
Фильмы без перевода [ 1.38 GB ] 12 раундов 3 / 12 Rounds 3: Lockdown [2015 WEB-DLRip Оригинал] makarevich Скачать
1 | 0

28-11-2019 20:33  

Отключить всю рекламу на сайте

    Дорогой пользователь! Огромная просьба, поблагодарите релизера, оцените раздачу и оставьте свои комментарий, если Вы скачали 12 раундов через торрент бесплатно! Внесите свою лепту в развитие PiratBit!
    Комментировать посты могут только пользователи прошедшие не сложную регистрацию
    Показать сообщения:    

    12 раундов через торрент
    Скачать бесплатно 12 раундов
    12 раундов скачать торрент
    12 раундов смотреть онлайн
    Cкачать фильм 12 раундов бесплатно
    12 раундов скачать торрент в хорошем качестве
    12 раундов смотреть онлайн бесплатно в хорошем качестве


    Вы не можете начинать темы
    Вы не можете отвечать на сообщения
    Вы не можете редактировать свои сообщения
    Вы не можете удалять свои сообщения
    Вы не можете голосовать в опросах
    Вы не можете прикреплять файлы к сообщениям
    Вы можете скачивать файлы