Мега распродажа FORZA HORIZON 4 ULTIMATE+ВСЕ DLC+ОНЛАЙН всего за 499р. 349 руб. (супер цена). Внимание количество ограничено!!!

Лицензия

30

iTunes

мы

iTunes

1

1 сезон

Чернобыль

1 сезон

Ральф против интернета

MVO

Покемон. Детектив Пикачу

8 сезон

Игра престолов

iTunes

1+1

ИГРА 18+

pack

ВАЖНО

!!Акция!!

Alien_RageХит недели

RePack

Resident Evil 21
pack

RePack

Metro:Exodus

!!Акция!!

Alien_Rage

RePack

fifa19

RePack

Assassins Creed: Odyssey

RePack

NEED FOR SPEED™ PAYBACK

3 сезон

9 сезон

Бесстыжие 9 сезон

Все сериалы

все сериалы на PB.wtf

RePack

FAR CRY 5
Ребята, катастрофически не хватает 2730р. для оплаты серверов за МАЙ (всвязи с блокировками трафик упал в 3 раза), 1-2р., выручайте.
  

Оскар / Oscar (Эдуар Молинаро) [1967 г., комедия, DVDRip, DUB, лицензия] pb.wtf

Оскар через торрент pb.wtf

Размер: 1.47 GB | Добавлен: 6 лет 4 мес. назад | Торрент скачан:38 раз
Скачать  

08-02-2013 14:55 Оскар Скачать торрент  

Оскар / Oscar

Год выпуска: 1967
Страна: Франция
Жанр: комедия
Продолжительность: 1:19:50
Перевод: Дубляж (Союзмультфильм)+Профессиональный,многоголосый,закадровый (Cinema Prestige)+Профессиональный,многоголосый,закадровый (Светла)

Режиссер: Эдуар Молинаро
Продюссер: Ален Пуаре
Сценарий: Клод Манье, Жан Ален, Эдуар Молинаро

Премьера в мире: 11 октября 1967



В ролях: Луи де Фюнес, Клод Риш, Агата Натансон, Клауди Жансак, Сильвия Сорель, Доминик Паж, Марио Давид, Поль Пребуа, Жермен Дельба

Описание: Бертран Барнье — крупный промышленник, к которому с утра пораньше является его управляющий Кристиан. Он заявляет, что любит его дочь Колет, а после этого признается, что украл у предпринимателя кругленькую сумму. Вдобавок бизнесмен узнает, что его горничная увольняется и в одночасье становится баронессой.

Колет заявляет, что беременна от бывшего шофера по имени Оскар. Кроме того, выяснятся, что она вовсе не дочь Барнье и, не желая оставаться старой девой, готова выйти замуж за любого встречного…

К тому же, к этой истории примешиваются два черных чемодана, один из которых набит деньгами и драгоценностям, а другой женским нижним бельем… Как тут, от такого потока событий, происходящих в течение одного дня, «бедному» Бертрану не сойти с ума?!
На основе той же пьесы Клода Манье в 1991 году был снят голливудский фильм «Оскар» с Сильвестром Сталлоне в главной роли.
В России в 2003 году режиссёр Пётр Штейн поставил антрепризный спектакль «Оскар» в соавторстве с Игорем Угольниковым, сыгравшим в нём Бертрана Барнье.
Качество: DVDRip
Формат: AVI
Видео кодек: XviD
Аудио кодек: AC3
Видео: 720x320 (2.25:1), 25 fps, XviD build 50, 2037 kbps avg, 0.35 bit/pixel
Аудио#1: 48 kHz, AC3 Dolby Digital, 2/0 (L,R) ch, 192.00 kbps (DUB)
Аудио#2: 48 kHz, AC3 Dolby Digital, 2/0 (L,R) ch, 192.00 kbps (MVO)
Аудио#3: 48 kHz, AC3 Dolby Digital, 2/0 (L,R) ch, 192.00 kbps (MVO)
скриншот  скриншот  скриншот  скриншот  скриншот  скриншот  скриншот  скриншот  скриншот  

Общее
Полное имя : D:загрузкиОскар.avi
Формат : AVI
Формат/Информация : Audio Video Interleave
Размер файла : 1,47 Гбайт
Продолжительность : 1 ч. 19 м.
Общий поток : 2634 Кбит/сек
Программа кодирования : VirtualDubMod 1.5.10.2 (build 2542/release)
Библиотека кодирования : VirtualDubMod build 2542/release

Видео
Идентификатор : 0
Формат : MPEG-4 Visual
Профиль формата : Advanced Simple@L5
Параметр BVOP формата : 1
Параметр QPel формата : Нет
Параметр GMC формата : Без точки перехода
Параметр матрицы формата : Default (MPEG)
Идентификатор кодека : XVID
Идентификатор кодека/Подсказка : XviD
Продолжительность : 1 ч. 19 м.
Битрейт : 2039 Кбит/сек
Ширина : 720 пикселей
Высота : 320 пикселей
Соотношение сторон : 2,25:1
Частота кадров : 25,000 кадров/сек
Цветовое пространство : YUV
Субдискретизация насыщенности : 4:2:0
Битовая глубина : 8 бит
Тип развёртки : Прогрессивная
Метод сжатия : С потерями
Бит/(Пиксели*Кадры) : 0.354
Размер потока : 1,14 Гбайт (77%)
Библиотека кодирования : XviD 1.2.1 (UTC 2008-12-04)

Аудио #1
Идентификатор : 1
Формат : AC-3
Формат/Информация : Audio Coding 3
Расширение режима : CM (complete main)
Параметр Endianness формата : Big
Идентификатор кодека : 2000
Продолжительность : 1 ч. 19 м.
Вид битрейта : Постоянный
Битрейт : 192 Кбит/сек
Каналы : 2 канала
Расположение каналов : Front: L R
Частота : 48,0 КГц
Битовая глубина : 16 бит
Метод сжатия : С потерями
Размер потока : 110 Мбайт (7%)
Выравнивание : Разделение по промежуткам
Продолжительность промежутка : 40 мс. (1,00 видеокадр)
Время предзагрузки промежутка : 500 мс.

Аудио #2
Идентификатор : 2
Формат : AC-3
Формат/Информация : Audio Coding 3
Расширение режима : CM (complete main)
Параметр Endianness формата : Big
Идентификатор кодека : 2000
Продолжительность : 1 ч. 19 м.
Вид битрейта : Постоянный
Битрейт : 192 Кбит/сек
Каналы : 2 канала
Расположение каналов : Front: L R
Частота : 48,0 КГц
Битовая глубина : 16 бит
Метод сжатия : С потерями
Размер потока : 110 Мбайт (7%)
Выравнивание : Разделение по промежуткам
Продолжительность промежутка : 40 мс. (1,00 видеокадр)
Время предзагрузки промежутка : 500 мс.

Аудио #3
Идентификатор : 3
Формат : AC-3
Формат/Информация : Audio Coding 3
Расширение режима : CM (complete main)
Параметр Endianness формата : Big
Идентификатор кодека : 2000
Продолжительность : 1 ч. 19 м.
Вид битрейта : Постоянный
Битрейт : 192 Кбит/сек
Каналы : 2 канала
Расположение каналов : Front: L R
Частота : 48,0 КГц
Битовая глубина : 16 бит
Метод сжатия : С потерями
Размер потока : 110 Мбайт (7%)
Выравнивание : Разделение по промежуткам
Продолжительность промежутка : 40 мс. (1,00 видеокадр)
Время предзагрузки промежутка : 500 мс.

pb.wtf



Скачать Оскар через торрент http://pic.kartinco.top/images/1/nentqzm9n6.jpg Скачать фильм Оскар через торрент бесплантно в хорошем качестве Описание: Бертран Барнье — крупный промышленник, к которому с утра пораньше является его управляющий Кристиан. Он заявляет, что любит его ... 5 10 1
Info! Золотая раздача, скачанное не засчитывается.
Торрент: Зарегистрирован [2013-02-08 14:55] · скачан: 38 раз
Статус: √ проверено
Размер: 1.47 GB
Как cкачать? Как скачать Оскар через торрент | qTorrent

% Раздел Тема Автор DL S | L
Фильмы [HD 720p, 1080p] (Хороший звук DUB, MVO) [ 16.08 GB ] Оскар / Oscar [1991 BDRip 1080p by msltel] DUB 2 x MVO DVO 4 x AVO msltel Скачать
1 | 0
Фильмы [HD 720p, 1080p] (Хороший звук DUB, MVO) [ 5.81 GB ] Оскар / Oscar [1991 BDRip 720p by msltel] DUB 2 x MVO DVO 4 x AVO msltel Скачать
8 | 0
Фильмы с авторской озвучкой [ 1.46 GB ] Бабба Хо-Теп / Bubba Ho-Tep [2002 HDRip] [AVO] killermax2013 Скачать
1 | 0
Фильмы до 2000 г. [ 744 MB ] Фантазм 2 / Phantasm II [1988 HDRip] MVO dexter lex Скачать
1 | 0
Фильмы до 2000 г. [ 1.73 GB ] Фантазм 4: Забвение / Phantasm IV: Oblivion [1998 DVDRip-AVC многоголосый [] jump88 Скачать
1 | 0
Фильмы до 2000 г. [ 1.75 GB ] Фантазм 3 / Phantasm III: Lord of the Dead [1993 DVDRip многоголосый [] jump88 Скачать
1 | 0
Фильмы до 2000 г. [ 1.7 GB ] Фантазм / Phantasm [1978 DVDRip многоголосый [] jump88 Скачать
1 | 0


>> Регистрируемся здесь <<






Отзывы и комментарии о схеме читаем и пишем здесь: ---> Отзывы и комментарии о схеме

Новые благодарочки в телеграм довольных пользователей:
скриншот   скриншот   скриншот   скриншот   скриншот

08-02-2013 19:27 Оскар Скачать торрент  

Очень прекрасный фильм, но альтернативная со Сталлоне более "живая", гармоничная (и это абсолютно мое имхо). pb.wtf



    Дорогой пользователь! Огромная просьба, поблагодарите релизера, оцените раздачу и оставьте свои комментарий, если Вы скачали Оскар через торрент бесплатно! Внесите свою лепту в развитие PiratBit!
    Комментировать посты могут только пользователи прошедшие не сложную регистрацию
    Показать сообщения:    

    Оскар через торрент
    Скачать бесплатно Оскар
    Оскар скачать торрент
    Оскар смотреть онлайн
    Cкачать фильм Оскар бесплатно
    Оскар скачать торрент в хорошем качестве
    Оскар смотреть онлайн бесплатно в хорошем качестве


    Вы не можете начинать темы
    Вы не можете отвечать на сообщения
    Вы не можете редактировать свои сообщения
    Вы не можете удалять свои сообщения
    Вы не можете голосовать в опросах
    Вы не можете прикреплять файлы к сообщениям
    Вы можете скачивать файлы