Ссылка на приватное зеркало нашего сайта всего за 1$. Внимание количество ограничено!!!

2 сезон

iTunes

1 сезон

1

2 сезон

2 сезон

iTunes

1 сезон

RePack

30

Ultimate

ВАЖНО

ИГРА 18+

pack

RePack

MK11
pack

Забери бонус

RePack

jed

!!Акция!!

Alien_Rage

RePack

fifa19

RePack

Assassins Creed: Odyssey

RePack

NEED FOR SPEED™ PAYBACK

4 сезон

9 сезон

Бесстыжие 9 сезон

Все сериалы

все сериалы на PB.wtf

RePack

FAR CRY 5
  

Билет на Vegas (Гор Киракосян) [2012 г., комедия, приключения, DVDRip-AVC, лицензия] pb.wtf

Билет на Vegas через торрент pb.wtf

Размер: 1.74 GB | Добавлен: 7 лет 9 мес. назад | Торрент скачан:520 раз
Скачать  

08-02-2013 17:36 Билет на Vegas Скачать торрент  

Билет на Vegas

Год выпуска: 2012
Страна: Россия
Жанр: комедия, приключения
Продолжительность: 01:26:02
Перевод: Не требуется Лицензия

Режиссер: Гор Киракосян
Продюссер: Армен Григорян, Михаил Галустян, Армен Ананикян
Сценарий: Ирина Пивоварова, Сергей Калужанов, Гор Киракосян

Мировой рейтинг IMDB 4.20 (36)


В ролях: Михаил Галустян, Иван Стебунов, Ингрид Олеринская, Владимир Яглыч, Наталья Ноздрина, Дэнни Трехо, Олег Тактаров, Ким Уитли, Гильермо Диас, Годфри

Описание: На молодую парочку, Макса и Лизу, сваливается удача: они становятся победителями лотереи с выигрышем в пять миллионов долларов! Но получить деньги можно только на торжественной церемонии в столице порока, азартных игр и безудержного веселья, Лас Вегасе... Счастливчики не подозревают, что на большой куш есть и другие претенденты. Оказавшись в Америке, они попадают на крючок очень опасного, но невероятно обаятельного мошенника Гарика, вылитого Элвиса Пресли.Кто же сорвет джек-пот?

Качество: DVDRip-AVC
Формат: MKV
Видео кодек: H.264
Аудио кодек: AC3
Видео: 1024 x 426 (2.404) at 25.000 fps AVC at 2451 Кбит/сек
Аудио: AC-3 at 384 Кбит/сек 6 каналов, 48,0 КГц
Релиз от:
Общее
Уникальный идентификатор : 245023839916558737049310937130290877577 (0xB855E00284520CAD92B49585F13B9489)
Полное имя : D:ФильмыBilet.Na.Vegas.2012.O.DVDRip.AVC.KinoFan.TV.mkv
Формат : Matroska
Версия формата : Version 4 / Version 2
Размер файла : 1,74 Гбайт
Продолжительность : 1 ч. 26 м.
Общий поток : 2892 Кбит/сек
Название фильма : Билет на Вегас.KinoFan.TV
Дата кодирования : UTC 2010-02-22 21:41:31
Программа кодирования : mkvmerge v5.9.0 ('On The Loose') built on Dec 9 2012 15:37:01
Библиотека кодирования : libebml v1.3.0 + libmatroska v1.4.0
Attachment : Yes

Видео
Идентификатор : 1
Формат : AVC
Формат/Информация : Advanced Video Codec
Профиль формата : High@L3.1
Параметр CABAC формата : Нет
Параметр ReFrames формата : 4 кадра
Режим смешивания : Header stripping
Идентификатор кодека : V_MPEG4/ISO/AVC
Продолжительность : 1 ч. 26 м.
Битрейт : 2451 Кбит/сек
Номинальный битрейт : 2600 Кбит/сек
Ширина : 1024 пикселя
Высота : 426 пикселей
Соотношение сторон : 2,40:1
Частота кадров : 25,000 кадров/сек
Цветовое пространство : YUV
Субдискретизация насыщенности : 4:2:0
Битовая глубина : 8 бит
Тип развёртки : Прогрессивная
Бит/(Пиксели*Кадры) : 0.225
Размер потока : 1,47 Гбайт (85%)
Заголовок : DVDRip-AVC
Библиотека кодирования : x264 core 108 r1790bm 8eaf8a6
Настройки программы : cabac=0 / ref=3 / deblock=0:0:0 / analyse=0x3:0x113 / me=hex / subme=7 / psy=1 / psy_rd=1.00:0.00 / mixed_ref=1 / me_range=16 / chroma_me=1 / trellis=1 / 8x8dct=1 / cqm=0 / deadzone=21,11 / fast_pskip=1 / chroma_qp_offset=-2 / threads=1 / sliced_threads=0 / nr=0 / decimate=1 / interlaced=0 / constrained_intra=0 / bframes=3 / b_pyramid=2 / b_adapt=1 / b_bias=0 / direct=1 / weightb=0 / open_gop=0 / weightp=0 / keyint=250 / keyint_min=25 / scenecut=40 / intra_refresh=0 / rc_lookahead=40 / rc=abr / mbtree=1 / bitrate=2600 / ratetol=1.0 / qcomp=0.60 / qpmin=10 / qpmax=51 / qpstep=4 / ip_ratio=1.40 / aq=1:1.00
Язык : Russian
Default : Да
Forced : Нет

Аудио
Идентификатор : 2
Формат : AC-3
Формат/Информация : Audio Coding 3
Расширение режима : CM (complete main)
Режим смешивания : Header stripping
Идентификатор кодека : A_AC3
Продолжительность : 1 ч. 26 м.
Вид битрейта : Постоянный
Битрейт : 384 Кбит/сек
Каналы : 6 каналов
Расположение каналов : Front: L C R, Side: L R, LFE
Частота : 48,0 КГц
Битовая глубина : 16 бит
Метод сжатия : С потерями
Размер потока : 236 Мбайт (13%)
Заголовок : AC3
Язык : Russian
Default : Да
Forced : Нет


Билет на Vegas скачать торрент


pb.wtf



Скачать Билет на Vegas через торрент http://pic.kartinco.top/images/1/298srpycw6.jpg Скачать фильм Билет на Vegas через торрент бесплантно в хорошем качестве Описание: На молодую парочку, Макса и Лизу, сваливается удача: они становятся победителями лотереи с выигрышем в пять миллионов долларов! ... 10 10 7
Info! Золотая раздача, скачанное не засчитывается.
Торрент: Зарегистрирован [2013-02-08 17:36] · скачан: 520 раз
Статус: √ проверено
Размер: 1.74 GB
Как cкачать? Как скачать Билет на Vegas через торрент | qTorrent

% Раздел Тема Автор DL S | L
Наши новые фильмы 2012 [ 1.37 GB ] Билет на Vegas [2012 DVDRip [ лицензия ]] ALIK1989 Скачать
1 | 0
Наши фильмы (HD, WEB-DL 720p, 1080p) [ 3.68 GB ] Билет на Vegas [2012 BDRip 720p лицензия] Ke$h@ Скачать
1 | 0
Наши фильмы (Blu-ray, BD-Remux, HDDVD) [ 24.71 GB ] Билет на Vegas [2012 Blu-Ray Оригинал лицензия] DEVI Скачать
1 | 0
Наши новые фильмы 2012 [ 703 MB ] Билет на Vegas [2012 DVDRip Оригинал / лицензия!] Mr. Freeman Скачать
1 | 0
Наши фильмы (DVD фильмы) [ 5.46 GB ] Билет на Vegas [2013 DVD9] R5 voovaz Скачать
1 | 0

28-11-2019 20:33  

Отключить всю рекламу на сайте

    Дорогой пользователь! Огромная просьба, поблагодарите релизера, оцените раздачу и оставьте свои комментарий, если Вы скачали Билет на Vegas через торрент бесплатно! Внесите свою лепту в развитие PiratBit!
    Комментировать посты могут только пользователи прошедшие не сложную регистрацию
    Показать сообщения:    

    Билет на Vegas через торрент
    Скачать бесплатно Билет на Vegas
    Билет на Vegas скачать торрент
    Билет на Vegas смотреть онлайн
    Cкачать фильм Билет на Vegas бесплатно
    Билет на Vegas скачать торрент в хорошем качестве
    Билет на Vegas смотреть онлайн бесплатно в хорошем качестве


    Вы не можете начинать темы
    Вы не можете отвечать на сообщения
    Вы не можете редактировать свои сообщения
    Вы не можете удалять свои сообщения
    Вы не можете голосовать в опросах
    Вы не можете прикреплять файлы к сообщениям
    Вы можете скачивать файлы