Ссылка на приватное зеркало нашего сайта всего за 1$. Внимание количество ограничено!!!

2 сезон

iTunes

1 сезон

1

iTunes

iTunes

iTunes

1 сезон

RePack

30

ИГРА 18+

pack

ВАЖНО

!!Акция!!

Alien_RageХит недели

RePack

MK11
pack

Забери бонус

RePack

jed

!!Акция!!

Alien_Rage

RePack

fifa19

RePack

Assassins Creed: Odyssey

RePack

NEED FOR SPEED™ PAYBACK

4 сезон

9 сезон

Бесстыжие 9 сезон

Все сериалы

все сериалы на PB.wtf

RePack

FAR CRY 5
  

Подарок доброй ведьмы / The Good Witch's Gift (Крэйг Прайс) [2010 г., фэнтези, драма, семейный, HDTVrip-AVC, Профессиональный двухголосый] pb.wtf

Подарок доброй ведьмы через торрент pb.wtf

Размер: 1.22 GB | Добавлен: 7 лет 8 мес. назад | Торрент скачан:121 раз
Скачать  

10-02-2013 09:44 Подарок доброй ведьмы Скачать торрент  




Год выпуска: 2010
Страна: Канада
Жанр: фэнтези, драма, семейный
Продолжительность: 01:24:16
Перевод: Профессиональный двухголосый

Режиссер: Крэйг Прайс
Продюссер: Андреа Раффаэлло, Орли Эделсон, Джанина Баррет
Сценарий: Род Спенс, Дж. Росс Паркер

Премьера в мире: 13 ноября 2010



В ролях: Кэтрин Белл, Крис Поттер, Катрин Дишер, Питер МакНейл, Мэттью Найт, Элизабет Ленни, Ханна Эндикотт-Дуглас, Ной Кэппи, Пол Миллер, Лаура Бертрам

Описание: Джейк Рассел хочет сделать своей невесте, Кэсси, идеальный рождественский подарок. Ему в голову приходит великолепная идея — устроить свадьбу на Рождество, но возникают непредвиденные препятствия, которые они должны преодолеть, чтобы пожениться.
Неожиданно в город приезжает бывший заключенный Леон Дикс, он ищет деньги, которые спрятал в доме Кэсси. Джейк также не может найти документы Кэсси, которые нужно отнести в ЗАГс. А еще собака съела свадебный торт, и теперь Джейк во что бы то ни стало должен найти новый. И, наконец, дети Джейка не в восторге от затеи папы.
Сможет ли Кэсси с помощью магии справиться со всеми трудностями и насладиться незабываемым Рождеством?

Качество: HDTVrip-AVC
Формат: MKV
Видео кодек: H.264
Аудио кодек: AC3
Видео: 1024x 576 (16:9),25,000fps, AVC MPEG-4 (H.264), ~2055 kbps avg, 0.128 bit/pixel
Аудио: AC-3, 2 ch, 192 Кбит/с




Общее
Уникальный идентификатор : 179665710144932061301942239140820557506 (0x872A5B6BDFAB9F0085F47B1BA2C81EC2)
Полное имя : H:Podarok dobroi vedjmi.mkv
Формат : Matroska
Версия формата : Version 2
Размер файла : 1,22 Гбайт
Продолжительность : 1 ч. 24 м.
Общий поток : 2075 Кбит/сек
Дата кодирования : UTC 2013-02-07 10:03:53
Программа кодирования : mkvmerge v5.8.0 ('No Sleep / Pillow') built on Sep 2 2012 15:37:04
Библиотека кодирования : libebml v1.2.3 + libmatroska v1.3.0

Видео
Идентификатор : 1
Формат : AVC
Формат/Информация : Advanced Video Codec
Профиль формата : High@L4.1
Параметр CABAC формата : Да
Параметр ReFrames формата : 5 кадров
Идентификатор кодека : V_MPEG4/ISO/AVC
Продолжительность : 1 ч. 24 м.
Битрейт : 1881 Кбит/сек
Ширина : 1024 пикселя
Высота : 576 пикселей
Соотношение сторон : 16:9
Частота кадров : 25,000 кадров/сек
Цветовое пространство : YUV
Субдискретизация насыщенности : 4:2:0
Битовая глубина : 8 бит
Тип развёртки : Прогрессивная
Бит/(Пиксели*Кадры) : 0.128
Размер потока : 1,08 Гбайт (89%)
Библиотека кодирования : x264 core 125 r2208 d9d2288
Настройки программы : cabac=1 / ref=5 / deblock=1:-2:-2 / analyse=0x3:0x113 / me=umh / subme=9 / psy=1 / psy_rd=0.00:0.10 / mixed_ref=1 / me_range=32 / chroma_me=1 / trellis=2 / 8x8dct=1 / cqm=0 / deadzone=21,11 / fast_pskip=0 / chroma_qp_offset=-1 / threads=3 / lookahead_threads=1 / sliced_threads=0 / nr=0 / decimate=1 / interlaced=0 / bluray_compat=0 / constrained_intra=0 / bframes=5 / b_pyramid=2 / b_adapt=0 / b_bias=0 / direct=1 / weightb=1 / open_gop=0 / weightp=2 / keyint=250 / keyint_min=25 / scenecut=40 / intra_refresh=0 / rc_lookahead=50 / rc=2pass / mbtree=1 / bitrate=1881 / ratetol=1.0 / qcomp=0.60 / qpmin=0 / qpmax=69 / qpstep=4 / cplxblur=20.0 / qblur=0.5 / ip_ratio=1.40 / aq=1:1.00
Default : Да
Forced : Нет

Аудио
Идентификатор : 2
Формат : AC-3
Формат/Информация : Audio Coding 3
Расширение режима : CM (complete main)
Параметр Endianness формата : Big
Идентификатор кодека : A_AC3
Продолжительность : 1 ч. 24 м.
Вид битрейта : Постоянный
Битрейт : 192 Кбит/сек
Каналы : 2 канала
Расположение каналов : Front: L R
Частота : 48,0 КГц
Битовая глубина : 16 бит
Метод сжатия : С потерями
Задержка видео : 8 мс.
Размер потока : 116 Мбайт (9%)
Default : Да
Forced : Нет


Подарок доброй ведьмы скачать торрент


pb.wtf



Скачать Подарок доброй ведьмы через торрент http://pic.kartinco.top/images/1/ay38nu3o9h.png Скачать фильм Подарок доброй ведьмы через торрент бесплантно в хорошем качестве Описание: Джейк Рассел хочет сделать своей невесте, Кэсси, идеальный рождественский подарок. Ему в голову приходит великолепная идея — ... 10 10 1
Info! Золотая раздача, скачанное не засчитывается.
Торрент: Зарегистрирован [2013-02-10 09:44] · скачан: 121 раз
Статус: √ проверено
Размер: 1.22 GB
Как cкачать? Как скачать Подарок доброй ведьмы через торрент | qTorrent

28-11-2019 20:33  

Отключить всю рекламу на сайте

10-02-2013 15:36 Подарок доброй ведьмы Скачать торрент  

Всем привет!!!
Скачал для дочери - 8 лет...
Посмотрели с удовольствием и жена, и дочь...
Добрый, позитивный, рождественский фильм.
Спасибо за раздачу!!!pb.wtf



10-02-2013 15:40 Подарок доброй ведьмы Скачать торрент  

Lord Cold писал(а):

Всем привет!!!
Скачал для дочери - 8 лет...
Посмотрели с удовольствием и жена, и дочь...
Добрый, позитивный, рождественский фильм.
Спасибо за раздачу!!!

Пожалуйста! Рад, что понравился фильм pb.wtf



    Дорогой пользователь! Огромная просьба, поблагодарите релизера, оцените раздачу и оставьте свои комментарий, если Вы скачали Подарок доброй ведьмы через торрент бесплатно! Внесите свою лепту в развитие PiratBit!
    Комментировать посты могут только пользователи прошедшие не сложную регистрацию
    Показать сообщения:    

    Подарок доброй ведьмы через торрент
    Скачать бесплатно Подарок доброй ведьмы
    Подарок доброй ведьмы скачать торрент
    Подарок доброй ведьмы смотреть онлайн
    Cкачать фильм Подарок доброй ведьмы бесплатно
    Подарок доброй ведьмы скачать торрент в хорошем качестве
    Подарок доброй ведьмы смотреть онлайн бесплатно в хорошем качестве


    Вы не можете начинать темы
    Вы не можете отвечать на сообщения
    Вы не можете редактировать свои сообщения
    Вы не можете удалять свои сообщения
    Вы не можете голосовать в опросах
    Вы не можете прикреплять файлы к сообщениям
    Вы можете скачивать файлы