2 сезон

iTunes

MVO

1

2 сезон

iTunes

iTunes

1 сезон

RePack

30

Ultimate

ВАЖНО

ИГРА 18+

pack

RePack

MK11
pack

Легкие деньги

RePack

jed

RePack

fifa19

RePack

RDR2

RePack

NEED FOR SPEED™ PAYBACK

4 сезон

9 сезон

Бесстыжие 9 сезон

Все сериалы

все сериалы на PB.wtf

RePack

FAR CRY 5

Anonymous, доброе утро, мы не успеваем собрать деньги на оплату серверов за декабрь и январь, помогите нам пожалуйста в это трудное время. В качестве благодарности мы отключим Вам всю рекламу на сайте (укажите свой ник в строку Ваше имя)!

×
  
Magnet ссылка

Одиночка (Сергей Щербин) [2010 г., Боевик, криминал, детектив, DVDRip] pb.wtf

Одиночка через торрент pb.wtf

Размер: 2.05 GB | Добавлен: 7 лет 11 мес. назад | Торрент скачан:767 раз
Скачать  

10-02-2013 16:35 Одиночка Скачать торрент  

Одиночка

Год выпуска: 2010
Страна: Россия ООО «Триикс Медиагруп»
Жанр: Боевик, криминал, детектив
Продолжительность: 01:39:45
Перевод: Не требуется

Режиссер: Сергей Щербин



В ролях: Данила Козловский, Ян Цапник, Андрей Кузнецов, Сергей Кудрявцев, Яков Шамшин, Мария Капустинская, Татьяна Тарасова, Екатерина Карманова, Наталья Третьякова, Валентина Савчук, Павел Исайкин, Александр Степин, Александр Клемантович, Геннадий Меньшиков, Анатолий Артемов, Сергей Мардарь, Алексей Белозерцев, Всеволод Цурило, Андрей Балашов, Дмитрий Сутырин, Олег Жилин, Александр Загуляев, Александр Уваров, Альберт Барбарич, Олег Метелев, Мария Новожилова, Валерий Зиновьев, Дмитрий Ермакович, Вячеслав Гумеров, Максим Павлов, Виктор Андриенко, Алексей Яншин, Эдуард Цензор, Сергей Серегин, Кирилл Горбунов, Олег Трифонов, Родион Антонкин

Описание: Вооруженный бандит, лицо которого скрыто под маской, совершает налет на сберкассу. Во время нападения погибает молодая женщина, жена оперуполномоченного Фролова. Представителям «органов» достаточно быстро удается выйти на след бандита — неизвестный, позвонивший в отделение милиции, дает операм наводку на дачу, где скрываются преступник. Сотрудники милиции проводят операцию, в ходе которой задержан некий Андрей Громов, который на самом деле является сотрудником спец. служб. Вина его полностью доказана и он получает 12 лет колонии строгого режима. Под видом бандита он должен был попасть в тюрьму, чтобы обзавестись связями в криминальном мире. А нападение на сберкассу послужило отличным поводом к этому. Громов был уверен, что спустя два-три года он выйдет на свободу. Но про него забыли. И вот Громов на свободе. Он хочет только одного — отомстить тем, кто оставил его на зоне. За вышедшим из тюрьмы агентом начинается охота. Но ликвидировать Громова сложно — он бывший спецназовец, кроме того, годы, проведенные в тюрьме, не прошли для него даром…

Доп. информация: Исходник DVD-5
Рип совместим со всеми бытовыми видеоплеерами.

Качество: DVDRip
Формат: AVI
Видео кодек: XviD
Аудио кодек: AC3
Видео: 720x400 (1.80:1), 25 fps, XviD build 50 ~2481 kbps avg, 0.34 bit/pixel
Аудио#1: 48 kHz, AC3 Dolby Digital, 3/2 (L,C,R,l,r) + LFE ch, ~448 kbps



Общее
Полное имя : F:ЗакачкиOdinochka.2010.DVDRip.avi
Формат : AVI
Формат/Информация : Audio Video Interleave
Профиль формата : OpenDML
Размер файла : 2,05 Гбайт
Продолжительность : 1 ч. 39 м.
Общий поток : 2936 Кбит/сек
Программа кодирования : VirtualDubMod 1.5.10.3 | www.virtualdub-fr.org || (build 2550/release)
Библиотека кодирования : VirtualDubMod build 2550/release

Видео
Идентификатор : 0
Формат : MPEG-4 Visual
Профиль формата : Advanced Simple@L5
Параметр BVOP формата : 2
Параметр QPel формата : Нет
Параметр GMC формата : Без точки перехода
Параметр матрицы формата : Default (H.263)
Идентификатор кодека : XVID
Идентификатор кодека/Подсказка : XviD
Продолжительность : 1 ч. 39 м.
Битрейт : 2476 Кбит/сек
Ширина : 720 пикселей
Высота : 400 пикселей
Соотношение сторон : 16:9
Частота кадров : 25,000 кадров/сек
Цветовое пространство : YUV
Субдискретизация насыщенности : 4:2:0
Битовая глубина : 8 бит
Тип развёртки : Прогрессивная
Метод сжатия : С потерями
Бит/(Пиксели*Кадры) : 0.344
Размер потока : 1,72 Гбайт (84%)
Библиотека кодирования : XviD 1.2.1 (UTC 2008-12-04)

Аудио
Идентификатор : 1
Формат : AC-3
Формат/Информация : Audio Coding 3
Расширение режима : CM (complete main)
Идентификатор кодека : 2000
Продолжительность : 1 ч. 39 м.
Вид битрейта : Постоянный
Битрейт : 448 Кбит/сек
Каналы : 6 каналов
Расположение каналов : Front: L C R, Side: L R, LFE
Частота : 48,0 КГц
Битовая глубина : 16 бит
Метод сжатия : С потерями
Размер потока : 320 Мбайт (15%)
Выравнивание : Разделение по промежуткам
Продолжительность промежутка : 40 мс. (1,00 видеокадр)
Время предзагрузки промежутка : 500 мс.

pb.wtf



Скачать Одиночка через торрент http://i51.fastpic.ru/big/2013/0210/fb/c12aad9d30ea16fbdd3fa69836d209fb.jpg Скачать фильм Одиночка через торрент бесплантно в хорошем качестве Описание: Вооруженный бандит, лицо которого скрыто под маской, совершает налет на сберкассу. Во время нападения погибает молодая женщина, ... 9 10 16
Info! Золотая раздача, скачанное не засчитывается.
Торрент: Зарегистрирован [2013-02-10 16:35] · скачан: 767 раз
Статус: √ проверено
Размер: 2.05 GB
Как cкачать? Как скачать Одиночка через торрент | UTorrent

% Раздел Тема Автор DL S | L
Фантастика [ 392 MB ] Кош Алекс - Одиночка 1. Дорога мечей [Радион Нечаев 2020 74 kbps MP3] bober100 Скачать
1 | 0
T Фильмы 2019-2020 [DVDrip, WEB-DLRip, HDrip] (DUB, MVO) [ 1.44 GB ] В одиночку / Alone [2020 HDRip-AVC] [MVO] [@MUZOBOZ@] от MediaBit Lithuania Скачать
5 | 0
Азиатские фильмы [ 1.45 GB ] Кровь волка-одиночки / The Blood of Wolves / Koro no chi [2018 HDRip-AVC] [MVO] [Синема Ус] от MediaBit Lithuania Скачать
1 | 0
T Фильмы 2019-2020 [DVDrip, WEB-DLRip, HDrip] (DUB, MVO) [ 2.05 GB ] Одиночка / Solitary [2020 WEB-DLRip-AVC] [MVO] [MUZOBOZ@] от MediaBit Lithuania Скачать
1 | 0
T Фильмы 2019-2020 [DVDrip, WEB-DLRip, HDrip] (DUB, MVO) [ 750 MB ] Одиночка / Solitary [2020 WEB-DLRip-AVC] [MVO] [MUZOBOZ@] от MediaBit Lithuania Скачать
1 | 0
T Фильмы (мультфильмы) cо спонсором показа (Новинки AVI/MKV) [ 4.59 GB ] Одиночка / Loners [2018 WEB-DL 720p] MVO ["Синема УС"] bober100 Скачать
1 | 0
Зарубежные сериалы [ 34.38 GB ] Родители-одиночки / Single Parents / Сезон: 1 / Серии: 1-23 из 23 [2018 WEB-DL 1080p] MVO [TVShows] bober100 Скачать
1 | 0

28-11-2019 20:33  

Отключить всю рекламу на сайте

10-02-2013 17:55 Одиночка Скачать торрент  

Супер кино!! pb.wtf



10-02-2013 18:28 Одиночка Скачать торрент  

на 5м скрине мужыг варенья обожрался))pb.wtf



04-06-2015 22:02 Одиночка Скачать торрент  

Хороший фильм,раза 3 смотрел.pb.wtf



06-12-2015 13:03 Одиночка Скачать торрент  

Отличный и даже очень реалистичный фильм. советую всемpb.wtf



    Дорогой пользователь! Огромная просьба, поблагодарите релизера, оцените раздачу и оставьте свои комментарий, если Вы скачали Одиночка через торрент бесплатно! Внесите свою лепту в развитие PiratBit!
    Комментировать посты могут только пользователи прошедшие не сложную регистрацию
    Показать сообщения:    

    Одиночка через торрент
    Скачать бесплатно Одиночка
    Одиночка скачать торрент
    Одиночка смотреть онлайн
    Cкачать фильм Одиночка бесплатно
    Одиночка скачать торрент в хорошем качестве
    Одиночка смотреть онлайн бесплатно в хорошем качестве


    Вы не можете начинать темы
    Вы не можете отвечать на сообщения
    Вы не можете редактировать свои сообщения
    Вы не можете удалять свои сообщения
    Вы не можете голосовать в опросах
    Вы не можете прикреплять файлы к сообщениям
    Вы можете скачивать файлы