2 сезон

iTunes

MVO

1

2 сезон

iTunes

iTunes

1 сезон

RePack

30

Новинка

ВАЖНО

ИГРА 18+

pack

RePack

MK11
pack

Легкие деньги

RePack

jed

RePack

fifa19

RePack

RDR2

RePack

NEED FOR SPEED™ PAYBACK

4 сезон

9 сезон

Бесстыжие 9 сезон

Все сериалы

все сериалы на PB.wtf

RePack

FAR CRY 5

Anonymous, добрый день, мы не успеваем собрать деньги на оплату серверов за декабрь и январь, помогите нам пожалуйста в это трудное время. В качестве благодарности мы отключим Вам всю рекламу на сайте (укажите свой ник в строку Ваше имя)!

×
  
Magnet ссылка

Лучший стрелок / Top Gun (Тони Скотт) [1986 г., боевик, драма, мелодрама, BDRip 3D 1080p, MVO]Горизонтальная анаморфная стереопара pb.wtf

Лучший стрелок через торрент pb.wtf

Размер: 10.77 GB | Добавлен: 7 лет 11 мес. назад | Торрент скачан:182 раза
Скачать  

11-02-2013 04:05 Лучший стрелок Скачать торрент  

Лучший стрелок / Top Gun

Год выпуска: 1986
Страна: США
Жанр: боевик, драма, мелодрама
Продолжительность: 01:51:00
Перевод: Профессиональный многоголосый, Лицензия

Режиссер: Тони Скотт
Продюссер: Билл Бадалато, Джерри Брукхаймер, Дон Симпсон
Сценарий: Джим Кэш, Джек Эппс мл., Эхуд Йонай

Мировой рейтинг IMDB 6.70 (131 766)


В ролях: Том Круз, Келли МакГиллис, Вэл Килмер, Энтони Эдвардс, Том Скеррит, Майкл Айронсайд, Джон Стокуэлл, Бэрри Табб, Рик Россович, Тим Роббинс

Описание: Искусный пилот истребителя Ф-14, курсант элитного училища ВМС США, летающий как бог и руководимый как в жизни, так и в небе инстинктами, а не разумом, влюбляется в инструктора училища, астрофизика, которая долгое время отказывает ему во взаимности. Уступит ли она его белозубой улыбке?

Доп. информация: Формат 3D: Half SideBySide / Горизонтальная анаморфная стереопара

Качество: BDRip 1080p
Формат: MKV
Видео кодек: H.26x
Аудио кодек: AC3
Видео: AVC, 11,6 Мбит/сек, 1920 x 1080, 23.976 кадра/сек
Аудио#1: AC3, 448 Кбит/сек, 6 каналов, 48,0 КГц - Rus
Аудио#2: DTS, 1509 Кбит/сек, 6 каналов, 48,0 КГц - Eng

Общее
Уникальный идентификатор : 212080608937807920759583087969421558362 (0x9F8D3D5258131266A1EC51E441A9025A)
Полное имя : C:ProbaTop.Gun.1986.1080p.BluRay.3D.H-SBS.DTS.x264-Public3Dtop.gun.1986.1080p.bluray.3D.h-sbs.mkv
Формат : Matroska
Версия формата : Version 4 / Version 2
Размер файла : 10,8 Гбайт
Продолжительность : 1 ч. 51 м.
Общий поток : 13,9 Мбит/сек
Дата кодирования : UTC 2013-02-11 03:18:49
Программа кодирования : mkvmerge v6.0.0 ('Coming Up For Air') built on Jan 20 2013 09:52:00
Библиотека кодирования : libebml v1.3.0 + libmatroska v1.4.0

Видео
Идентификатор : 1
Формат : AVC
Формат/Информация : Advanced Video Codec
Профиль формата : High@L4.1
Параметр CABAC формата : Да
Параметр ReFrames формата : 2 кадра
Идентификатор кодека : V_MPEG4/ISO/AVC
Продолжительность : 1 ч. 51 м.
Битрейт : 11,6 Мбит/сек
Ширина : 1920 пикселей
Высота : 1080 пикселей
Соотношение сторон : 16:9
Режим частоты кадров : Постоянный
Частота кадров : 23,976 кадра/сек
Цветовое пространство : YUV
Субдискретизация насыщенности : 4:2:0
Битовая глубина : 8 бит
Тип развёртки : Прогрессивная
Бит/(Пиксели*Кадры) : 0.234
Размер потока : 9,04 Гбайт (84%)
Библиотека кодирования : x264 core
Язык : English
Default : Да
Forced : Нет
Основные цвета : BT.709
Характеристики трансфера : BT.709
Коэффициенты матрицы : BT.709

Аудио #1
Идентификатор : 2
Формат : AC-3
Формат/Информация : Audio Coding 3
Расширение режима : CM (complete main)
Параметр Endianness формата : Big
Идентификатор кодека : A_AC3
Продолжительность : 1 ч. 51 м.
Вид битрейта : Постоянный
Битрейт : 448 Кбит/сек
Каналы : 6 каналов
Расположение каналов : Front: L C R, Side: L R, LFE
Частота : 48,0 КГц
Битовая глубина : 16 бит
Метод сжатия : С потерями
Задержка видео : 6 с. 0 мс.
Размер потока : 356 Мбайт (3%)
Язык : Russian
Default : Да
Forced : Нет

Аудио #2
Идентификатор : 3
Формат : DTS
Формат/Информация : Digital Theater Systems
Профиль формата : ES
Режим : 16
Параметр Endianness формата : Big
Идентификатор кодека : A_DTS
Продолжительность : 1 ч. 51 м.
Вид битрейта : Постоянный
Битрейт : 1509 Кбит/сек
Каналы : 7 каналов / 6 каналов
Расположение каналов : Front: L C R, Side: L R, Back: C, LFE / Front: L C R, Side: L R, LFE
Частота : 48,0 КГц
Битовая глубина : 24 бит
Метод сжатия : С потерями
Размер потока : 1,17 Гбайт (11%)
Язык : English
Default : Нет
Forced : Нет

Меню
00:00:00.000 : en:00:00:00.000
00:02:46.291 : en:00:02:46.291
00:12:51.354 : en:00:12:51.354
00:19:09.690 : en:00:19:09.690
00:25:46.420 : en:00:25:46.420
00:29:32.396 : en:00:29:32.396
00:39:13.393 : en:00:39:13.393
00:48:05.466 : en:00:48:05.466
00:55:29.034 : en:00:55:29.034
01:01:33.773 : en:01:01:33.773
01:04:05.508 : en:01:04:05.508
01:13:43.961 : en:01:13:43.961
01:21:15.829 : en:01:21:15.829
01:27:10.892 : en:01:27:10.892
01:34:24.993 : en:01:34:24.993
01:42:04.785 : en:01:42:04.785


Лучший стрелок скачать торрент


pb.wtf



Скачать Лучший стрелок через торрент http://pic.kartinco.top/images/1/4odaxluegw.jpg Скачать фильм Лучший стрелок через торрент бесплантно в хорошем качестве Описание: Искусный пилот истребителя Ф-14, курсант элитного училища ВМС США, летающий как бог и руководимый как в жизни, так и в небе ... 8.4 10 5
Info! Золотая раздача, скачанное не засчитывается.
Торрент: Зарегистрирован [2013-02-11 04:05] · скачан: 182 раз
Статус: √ проверено
Размер: 10.77 GB
Как cкачать? Как скачать Лучший стрелок через торрент | UTorrent

28-11-2019 20:33  

Отключить всю рекламу на сайте

11-02-2013 15:29 Лучший стрелок Скачать торрент  

это че??? самоделка??pb.wtf



20-07-2014 09:34 Лучший стрелок Скачать торрент  

Люди встаньте! На раздачу разумеется, пожалуйста))pb.wtf



    Дорогой пользователь! Огромная просьба, поблагодарите релизера, оцените раздачу и оставьте свои комментарий, если Вы скачали Лучший стрелок через торрент бесплатно! Внесите свою лепту в развитие PiratBit!
    Комментировать посты могут только пользователи прошедшие не сложную регистрацию
    Показать сообщения:    

    Лучший стрелок через торрент
    Скачать бесплатно Лучший стрелок
    Лучший стрелок скачать торрент
    Лучший стрелок смотреть онлайн
    Cкачать фильм Лучший стрелок бесплатно
    Лучший стрелок скачать торрент в хорошем качестве
    Лучший стрелок смотреть онлайн бесплатно в хорошем качестве


    Вы не можете начинать темы
    Вы не можете отвечать на сообщения
    Вы не можете редактировать свои сообщения
    Вы не можете удалять свои сообщения
    Вы не можете голосовать в опросах
    Вы не можете прикреплять файлы к сообщениям
    Вы можете скачивать файлы