Ссылка на приватное зеркало нашего сайта всего за 1$. Внимание количество ограничено!!!

2 сезон

iTunes

1 сезон

1

iTunes

iTunes

iTunes

1 сезон

RePack

30

ИГРА 18+

pack

ВАЖНО

!!Акция!!

Alien_RageХит недели

RePack

MK11
pack

Забери бонус

RePack

jed

!!Акция!!

Alien_Rage

RePack

fifa19

RePack

Assassins Creed: Odyssey

RePack

NEED FOR SPEED™ PAYBACK

4 сезон

9 сезон

Бесстыжие 9 сезон

Все сериалы

все сериалы на PB.wtf

RePack

FAR CRY 5
  

Разборка в Бронксе / Hong faan kui (Стэнли Тонг) [1995 г., боевик, триллер, комедия, криминал, BDRip 720p, Профессиональный (многоголосый закадровый)] pb.wtf

Разборка в Бронксе через торрент pb.wtf

Размер: 3.68 GB | Добавлен: 7 лет 8 мес. назад | Торрент скачан:40 раз
Скачать  

12-02-2013 12:47 Разборка в Бронксе Скачать торрент  

Разборка в Бронксе / Hong faan kui

Год выпуска: 1995
Страна: Гонконг, Канада
Жанр: боевик, триллер, комедия, криминал
Продолжительность: 01:29:36
Перевод: Профессиональный (многоголосый закадровый)

Режиссер: Стэнли Тонг
Продюссер: Рэймонд Чоу, Роберта Чоу, Леонард Хо
Сценарий: Эдвард Танг, Фибе Ма

Бюджет: $7 500 000
Премьера в мире: 21 января 1995

Мировой рейтинг IMDB 6.60 (18 136)



В ролях: Джеки Чан, Анита Муи, Франсуаза Йип, Билл Тун, Марк Экерстрим, Гарвин Кросс, Морган Лам, Эйлен Сит, Чан Ман Чинг, Фред Андруччи

Описание: Кеунг, полицейский из Гонконга, приезжает к своему дяде в Америку на свадьбу. Дядя как раз продал свой супермаркет красивой китаянке, ни слова не сказав новой хозяйке о том, что на магазин имеют виды бандиты, и уехал. Кеунг, конечно же, заступается за симпатичную бизнес-леди и устраивает рэкетирам разборку. Но на этом подвиги азиатского полицейского в нью-йоркских кварталах не заканчиваются! Кеунг начинает жесткое противостояние гангстерам в деле о пропаже бриллиантов...


Качество: BDRip 720p
Формат: MKV
Видео кодек: H.26x
Аудио кодек: AC3
Видео: 4348 Кбит/сек, 1280 x 528 (2,40:1) 23,976 fps, (0.268 bit/pixel)
Аудио#1: 48.0 kHz, AC3 Dolby Digital, 3/2 (L,C,R,l,r) + LFE ch, 384 kbps (Rus) MVO
Аудио#2: 48.0 kHz, AC3 Dolby Digital, 3/2 (L,C,R,l,r) + LFE ch, 384 kbps (Rus) DVO
Аудио#3: 48.0 kHz, DTS, Front: L C R, Side: L R, LFE (6 ch), 755 kbps (Eng)
Субтитры: Russian, English



скриншот   скриншот   скриншот   скриншот   скриншот   скриншот  
Общее
Уникальный идентификатор : 179917344756486147066272149149663261021 (0x875AD1F731687912907385EA7342715D)
Полное имя : D:DVDRumble.in.the.Bronx.1995.3Li.BluRay.720p.mkv
Формат : Matroska
Версия формата : Version 2
Размер файла : 3,68 Гбайт
Продолжительность : 1 ч. 29 м.
Общий поток : 5877 Кбит/сек
Название фильма : Rumble in the Bronx By 3Li
Дата кодирования : UTC 2013-02-12 10:54:20
Программа кодирования : mkvmerge v3.4.0 ('Rapunzel') сборка от May 15 2010 09:38:20
Библиотека кодирования : libebml v0.8.0 + libmatroska v0.9.0

Видео
Идентификатор : 1
Формат : AVC
Формат/Информация : Advanced Video Codec
Профиль формата : High@L4.1
Параметр CABAC формата : Да
Параметр ReFrames формата : 5 кадров
Идентификатор кодека : V_MPEG4/ISO/AVC
Продолжительность : 1 ч. 29 м.
Битрейт : 4348 Кбит/сек
Ширина : 1280 пикселей
Высота : 528 пикселей
Соотношение сторон : 2,40:1
Режим частоты кадров : Постоянный
Частота кадров : 23,976 кадра/сек
Цветовое пространство : YUV
Субдискретизация насыщенности : 4:2:0
Битовая глубина : 8 бит
Тип развёртки : Прогрессивная
Бит/(Пиксели*Кадры) : 0.268
Размер потока : 2,65 Гбайт (72%)
Заголовок : Rumble in the Bronx By 3Li
Библиотека кодирования : x264 core 125 r2200 999b753
Настройки программы : cabac=1 / ref=5 / deblock=1:-3:-3 / analyse=0x3:0x113 / me=umh / subme=9 / psy=1 / psy_rd=0.50:0.00 / mixed_ref=1 / me_range=18 / chroma_me=1 / trellis=1 / 8x8dct=1 / cqm=0 / deadzone=21,11 / fast_pskip=0 / chroma_qp_offset=-2 / threads=3 / lookahead_threads=1 / sliced_threads=0 / nr=0 / decimate=0 / interlaced=0 / bluray_compat=0 / constrained_intra=0 / bframes=3 / b_pyramid=2 / b_adapt=2 / b_bias=0 / direct=1 / weightb=1 / open_gop=0 / weightp=2 / keyint=240 / keyint_min=23 / scenecut=40 / intra_refresh=0 / rc_lookahead=40 / rc=2pass / mbtree=1 / bitrate=4348 / ratetol=1.0 / qcomp=0.60 / qpmin=0 / qpmax=69 / qpstep=4 / cplxblur=20.0 / qblur=0.5 / ip_ratio=1.40 / aq=1:1.00
Язык : English
Default : Нет
Forced : Нет

Аудио #1
Идентификатор : 2
Формат : AC-3
Формат/Информация : Audio Coding 3
Расширение режима : CM (complete main)
Параметр Endianness формата : Big
Идентификатор кодека : A_AC3
Продолжительность : 1 ч. 29 м.
Вид битрейта : Постоянный
Битрейт : 384 Кбит/сек
Каналы : 6 каналов
Расположение каналов : Front: L C R, Side: L R, LFE
Частота : 48,0 КГц
Битовая глубина : 16 бит
Метод сжатия : С потерями
Задержка видео : 1 с. 0 мс.
Размер потока : 246 Мбайт (7%)
Заголовок : MVO
Язык : Russian
Default : Нет
Forced : Да

Аудио #2
Идентификатор : 3
Формат : AC-3
Формат/Информация : Audio Coding 3
Расширение режима : CM (complete main)
Параметр Endianness формата : Big
Идентификатор кодека : A_AC3
Продолжительность : 1 ч. 29 м.
Вид битрейта : Постоянный
Битрейт : 384 Кбит/сек
Каналы : 6 каналов
Расположение каналов : Front: L C R, Side: L R, LFE
Частота : 48,0 КГц
Битовая глубина : 16 бит
Метод сжатия : С потерями
Задержка видео : 1 с. 0 мс.
Размер потока : 246 Мбайт (7%)
Заголовок : DVO
Язык : Russian
Default : Нет
Forced : Нет

Аудио #3
Идентификатор : 4
Формат : DTS
Формат/Информация : Digital Theater Systems
Идентификатор кодека : A_DTS
Продолжительность : 1 ч. 29 м.
Вид битрейта : Постоянный
Битрейт : 755 Кбит/сек
Каналы : 6 каналов
Расположение каналов : Front: L C R, Side: L R, LFE
Частота : 48,0 КГц
Битовая глубина : 24 бит
Метод сжатия : С потерями
Задержка видео : 11 мс.
Размер потока : 484 Мбайт (13%)
Заголовок : Rumble in the Bronx DTS 5.1
Язык : English
Default : Нет
Forced : Нет

Текст #1
Идентификатор : 5
Формат : UTF-8
Идентификатор кодека : S_TEXT/UTF8
Идентификатор кодека/Информация : UTF-8 Plain Text
Язык : Russian
Default : Нет
Forced : Нет

Текст #2
Идентификатор : 6
Формат : UTF-8
Идентификатор кодека : S_TEXT/UTF8
Идентификатор кодека/Информация : UTF-8 Plain Text
Язык : English
Default : Нет
Forced : Нет


Разборка в Бронксе скачать торрент


pb.wtf



Скачать Разборка в Бронксе через торрент http://i52.fastpic.ru/big/2013/0212/9c/e8451f52bbce8240438355667c4c319c.png Скачать фильм Разборка в Бронксе через торрент бесплантно в хорошем качестве Описание: Кеунг, полицейский из а, приезжает к своему дяде в Америку на свадьбу. Дядя как раз продал свой супермаркет красивой ... 10 10 2
Info! Золотая раздача, скачанное не засчитывается.
Торрент: Зарегистрирован [2013-02-12 12:47] · скачан: 40 раз
Статус: √ проверено
Размер: 3.68 GB
Как cкачать? Как скачать Разборка в Бронксе через торрент | qTorrent

% Раздел Тема Автор DL S | L
Фильмы (HD 720p, 1080p) (48-60 fps) [ 7.52 GB ] Разборка в Бронксе / Hong faan kui / Rumble in the Bronx [1995 BDRip 720p by mimok 2xMVO] 60fps mimok Скачать
1 | 0
Азиатские фильмы [ 1.96 GB ] Разборка в Бронксе / Hong faan kui [1995 HDRip MVO лицензия] Alex_E Скачать
1 | 0
Азиатские фильмы [ 745 MB ] Разборка в Бронксе / Rumble in the Bronx / Hong faan kui [1995 Гонконг HDRip-AVC] MVO + Sub dexter lex Скачать
1 | 0
Азиатские фильмы [ 1.46 GB ] Разборка в Бронксе / Rumble in the Bronx / Hong faan kui [1995 Гонконг HDRip] MVO dexter lex Скачать
1 | 0

28-11-2019 20:33  

Отключить всю рекламу на сайте

12-02-2013 13:50 Разборка в Бронксе Скачать торрент  

slaventi-69
Стань на раздачу.pb.wtf



12-02-2013 14:19 Разборка в Бронксе Скачать торрент  

На раздаче нахожусь, торент показывает что качают.
pb.wtf



    Дорогой пользователь! Огромная просьба, поблагодарите релизера, оцените раздачу и оставьте свои комментарий, если Вы скачали Разборка в Бронксе через торрент бесплатно! Внесите свою лепту в развитие PiratBit!
    Комментировать посты могут только пользователи прошедшие не сложную регистрацию
    Показать сообщения:    

    Разборка в Бронксе через торрент
    Скачать бесплатно Разборка в Бронксе
    Разборка в Бронксе скачать торрент
    Разборка в Бронксе смотреть онлайн
    Cкачать фильм Разборка в Бронксе бесплатно
    Разборка в Бронксе скачать торрент в хорошем качестве
    Разборка в Бронксе смотреть онлайн бесплатно в хорошем качестве


    Вы не можете начинать темы
    Вы не можете отвечать на сообщения
    Вы не можете редактировать свои сообщения
    Вы не можете удалять свои сообщения
    Вы не можете голосовать в опросах
    Вы не можете прикреплять файлы к сообщениям
    Вы можете скачивать файлы