Ссылка на приватное зеркало всего за 1$. Внимание количество ограничено!!!

OK

1+1

iTunes

мы

OK

1

WEB-DLRip

Джокер

Пифагор

Ведьмак / The Witcher сериал

Лицензия

ПШазам

ОК

Оно 2

iTunes

30
pack

Вам бонус

ВАЖНО

!!Акция!!

Alien_RageХит недели

RePack

Resident Evil 21

ИГРА 18+

pack

RePack

jed

!!Акция!!

Alien_Rage

RePack

fifa19

RePack

Assassins Creed: Odyssey

RePack

NEED FOR SPEED™ PAYBACK

4 сезон

9 сезон

Бесстыжие 9 сезон

Все сериалы

все сериалы на PB.wtf

RePack

FAR CRY 5
  

Джентльмены, удачи! (Александр Баранов, Дмитрий Киселёв) [2012 г., комедия, криминал, BDRip, Оригинал,лицензия] pb.wtf

Джентльмены, удачи! через торрент pb.wtf

Размер: 1.46 GB | Добавлен: 6 лет 11 мес. назад | Торрент скачан:1011 раз
Скачать  

12-02-2013 23:47 Джентльмены, удачи! Скачать торрент  

Джентльмены, удачи!

Год выпуска: 2012
Страна: Россия
Жанр: комедия, криминал
Продолжительность: 01:39:55
Перевод: Оригинал
Тип релиза: Лицензия

Режиссер: Александр Баранов, Дмитрий Киселёв
Продюссер: Тимур Бекмамбетов, Ива Стромилова, Александра Ремизова
Сценарий: Владимир Нагорный, Слава Сэ

Мировой рейтинг IMDB 2.90 (103)


В ролях: Сергей Безруков, Гоша Куценко, Антон Богданов, Марина Петренко, Дато Бахтадзе, Кирилл Жандаров, Валентин Смирнитский, Толепберген Байсакалов, Ольга Медынич, Иван Ивашкин

Описание: Молодой аниматор детского центра Леша Трешкин — инфантильный и жизнерадостный «хипстер» — оказывается двойником опаснейшего вора и убийцы Смайлика (так его прозвали за привычку улыбаться перед тем, как убить). Смайлик похищает из музея Санкт-Петербурга национальный символ Казахстана — Доспех Золотого Воина. Молодая красивая лейтенант полиции Ирина Славина ловит Трешкина, и «современными» полицейскими методами заставляет его помочь следствию. Выбора нет, иначе Трешкин сядет как настоящий преступник.Так Трешкин оказывается в Египте, где сидят двое подельников Смайлика — молодой воришка-оптимист Муха и матёрый мрачный Шатун. Начинается безумная череда приключений, — побег под прикрытием песчаной бури, гонки на грузовиках, переодевание в паранджи. Пытаясь выкрутиться из создавшейся ситуации, Трешкин неожиданно понимает, что из безответственного слабака превращается в человека, от которого зависит свобода и жизнь других. Но когда реальный Смайлик выходит на сцену, Трешкину придется решиться на настоящий подвиг, чтобы в этот новый год спасти и себя, и Славину, и своих новых друзей. А главное — найти любовь.

Качество: BDRip[рип с Blu-Ray]
Формат: AVI
Видео кодек: XviD
Аудио кодек: AC3
Видео: 720x304 (2.37:1), 24 fps, XviD build 50 ~1634 kbps avg, 0.31 bit/pixel
Аудио#1: 48 kHz, AC3 Dolby Digital, 3/2 (L,C,R,l,r) + LFE ch, ~448 kbps
Релиз от:

General
Complete name : H:Dzhentlmeny.udachi.2012.O.BDRip.IRONCLUB.avi
Format : AVI
Format/Info : Audio Video Interleave
File size : 1.46 GiB
Duration : 1h 39mn
Overall bit rate : 2 092 Kbps
Movie name : Dzhentlmeny.udachi.2012.O.BDRip.IRONCLUB
Director :
Genre : Comedy | Crime
Writing application : VirtualDubMod 1.5.10.3 | www.virtualdub-fr.org || (build 2550/release)
Original source form/Name : Movie
Copyright :

Video
ID : 0
Format : MPEG-4 Visual
Format profile : Advanced Simple@L5
Format settings, BVOP : 1
Format settings, QPel : No
Format settings, GMC : No warppoints
Format settings, Matrix : Custom
Codec ID : XVID
Codec ID/Hint : XviD
Duration : 1h 39mn
Bit rate : 1 635 Kbps
Width : 720 pixels
Height : 304 pixels
Display aspect ratio : 2.35:1
Frame rate : 24.000 fps
Color space : YUV
Chroma subsampling : 4:2:0
Bit depth : 8 bits
Scan type : Progressive
Compression mode : Lossy
Bits/(Pixel*Frame) : 0.311
Stream size : 1.14 GiB (78%)
Writing library : XviD 1.2.1 (UTC 2008-12-04)

Audio
ID : 1
Format : AC-3
Format/Info : Audio Coding 3
Mode extension : CM (complete main)
Format settings, Endianness : Big
Codec ID : 2000
Duration : 1h 39mn
Bit rate mode : Constant
Bit rate : 448 Kbps
Channel(s) : 6 channels
Channel positions : Front: L C R, Side: L R, LFE
Sampling rate : 48.0 KHz
Bit depth : 16 bits
Compression mode : Lossy
Stream size : 320 MiB (21%)
Alignment : Split accross interleaves
Interleave, duration : 42 ms (1.00 video frame)
Interleave, preload duration : 500 ms


Джентльмены, удачи! скачать торрент


pb.wtf



Скачать Джентльмены, удачи! через торрент http://pic.kartinco.top/images/1/du2fq2lky3.jpg Скачать фильм Джентльмены, удачи! через торрент бесплантно в хорошем качестве Описание: Молодой аниматор детского центра Леша Трешкин — инфантильный и жизнерадостный «хипстер» — оказывается двойником опаснейшего вора ... 9.9 10 7
Info! Золотая раздача, скачанное не засчитывается.
Торрент: Зарегистрирован [2013-02-12 23:47] · скачан: 1 011 раз
Статус: √ проверено
Размер: 1.46 GB
Как cкачать? Как скачать Джентльмены, удачи! через торрент | qTorrent

% Раздел Тема Автор DL S | L
Фильмы (BDRip, HDrip-AVC) (48-60 fps) [ 2.51 GB ] Джентльмены удачи [1971 BDRip-AVC 60fps Original] от R.G. HD-Films Tiberiumsun69 Скачать
23 | 1
Наши фильмы (Blu-ray, BD-Remux, HDDVD) [ 22.03 GB ] Джентльмены удачи! [2012 Blu-Ray Оригинал лицензия] Pavlin Скачать
1 | 0
Наши фильмы (HD, WEB-DL 720p, 1080p) [ 4.27 GB ] Джентльмены удачи! [2012 BDRip 720p лицензия] Ke$h@ Скачать
1 | 0
Наши фильмы (HD, WEB-DL 720p, 1080p) [ 4.37 GB ] Джентльмены удачи [1971 BDRip лицензия] Зайчина Скачать
1 | 0
Кино СССР [ 1.45 GB ] Джентльмены удачи [1971 BDRip] roller tm Скачать
1 | 0
Наши новые фильмы 2012 [ 1.37 GB ] Джентльмены удачи! [2012 WEBRip Оригинал] кэп Скачать
1 | 0
Наши фильмы (DVD фильмы) [ 6.92 GB ] Джентльмены удачи! [2012 DVD9] R5 voovaz Скачать
1 | 0

28-11-2019 20:33  

Отключить всю рекламу на сайте

    Дорогой пользователь! Огромная просьба, поблагодарите релизера, оцените раздачу и оставьте свои комментарий, если Вы скачали Джентльмены, удачи! через торрент бесплатно! Внесите свою лепту в развитие PiratBit!
    Комментировать посты могут только пользователи прошедшие не сложную регистрацию
    Показать сообщения:    

    Джентльмены, удачи! через торрент
    Скачать бесплатно Джентльмены, удачи!
    Джентльмены, удачи! скачать торрент
    Джентльмены, удачи! смотреть онлайн
    Cкачать фильм Джентльмены, удачи! бесплатно
    Джентльмены, удачи! скачать торрент в хорошем качестве
    Джентльмены, удачи! смотреть онлайн бесплатно в хорошем качестве


    Вы не можете начинать темы
    Вы не можете отвечать на сообщения
    Вы не можете редактировать свои сообщения
    Вы не можете удалять свои сообщения
    Вы не можете голосовать в опросах
    Вы не можете прикреплять файлы к сообщениям
    Вы можете скачивать файлы