2 сезон

iTunes

MVO

1

2 сезон

iTunes

iTunes

1 сезон

RePack

30

Новинка

ВАЖНО

ИГРА 18+

pack

RePack

MK11
pack

Легкие деньги

RePack

jed

RePack

fifa19

RePack

RDR2

RePack

NEED FOR SPEED™ PAYBACK

4 сезон

9 сезон

Бесстыжие 9 сезон

Все сериалы

все сериалы на PB.wtf

RePack

FAR CRY 5

Anonymous, добрый день, мы не успеваем собрать деньги на оплату серверов за декабрь и январь, помогите нам пожалуйста в это трудное время. В качестве благодарности мы отключим Вам всю рекламу на сайте (укажите свой ник в строку Ваше имя)!

×
  
Magnet ссылка

Видок / Vidocq (Питоф) [2001 г., фантастика, фэнтези, боевик, триллер, криминал, детектив, BDRip 1080p, DUB, лицензия] Anaglyph, red'cyan pb.wtf

Видок через торрент pb.wtf

Размер: 5.15 GB | Добавлен: 7 лет 11 мес. назад | Торрент скачан:83 раза
Скачать  

14-02-2013 18:47 Видок Скачать торрент  

Видок / Vidocq

Год выпуска: 2001
Страна: Франция
Жанр: фантастика, фэнтези, боевик, триллер, криминал, детектив
Продолжительность: 01:37:28
Перевод: Дубляж, Лицензия

Режиссер: Питоф
Продюссер: Доминик Фарруджия, Оливье Гранье
Сценарий: Франсуа-Эжен Видок, Питоф, Жан-Кристоф Гранже

Бюджет: FRF 152 000 000
Премьера в мире: 19 сентября 2001

Мировой рейтинг IMDB 6.40 (13 510)


В ролях: Жерар Депардье, Гийом Кане, Инес Састре, Андре Дюссолье, Эдит Скоб, Мусса Мааскри, Жан-Пьер Гос, Изабель Рено, Жан-Поль Дюбуа, Андре Пенверн,

Роли дублировали: Андрей Толубеев, Владимир Маслаков, Елена Шульман, Николай Буров, Галина Чигинская

Описание: Париж ХIХ века охвачен паникой. В его «чреве» завелся серийный убийца, которого может вычислить только гениальный сыщик Видок. Реальный исторический персонаж, не знающий удержу — особенно в исполнении громоподобного Депардье — ни в своих перевоплощениях, ни в дьявольской интуиции.Он мчится по следу загадочного Алхимика. Волшебные декорации города, который разрывают вспышки молний, потайные двери, одуряющие наркотическим безумием, в хитроумную лабораторию, где кружится голова.

Доп. информация: Формат 3d: Anaglyph, red'cyan



Качество: BDRip 1080p
Формат: MKV
Видео кодек: H.26x
Аудио кодек: AC3
Видео: 1918 х 1044 / 23,976 fps, (1,85:1) / 7059 Kbps, (0.147 bit/pixel)
Аудио: Русский / AC3 / 48 KHz / 6 ch / 384 Kbps (Дубляж)



скриншот   скриншот   скриншот   скриншот   скриншот   скриншот   скриншот  
Общее
Уникальный идентификатор : 223494631501262283397068910105726761625 (0xA8238015170754AC93479ABC843B3A99)
Полное имя : D:DVDVidok.3D.2001.(Anaglyph).BDRip.1080p.mkv
Формат : Matroska
Версия формата : Version 2
Размер файла : 5,15 Гбайт
Продолжительность : 1 ч. 37 м.
Общий поток : 7562 Кбит/сек
Название фильма : Vidok.3D.2001.(Anaglyph).BDRip.1080p
Дата кодирования : UTC 2013-02-11 12:12:13
Программа кодирования : mkvmerge v3.4.0 ('Rapunzel') сборка от May 15 2010 09:38:20
Библиотека кодирования : libebml v0.8.0 + libmatroska v0.9.0

Видео
Идентификатор : 1
Формат : AVC
Формат/Информация : Advanced Video Codec
Профиль формата : High@L4.0
Параметр CABAC формата : Да
Параметр ReFrames формата : 4 кадра
Идентификатор кодека : V_MPEG4/ISO/AVC
Продолжительность : 1 ч. 37 м.
Битрейт : 7059 Кбит/сек
Ширина : 1918 пикселей
Высота : 1044 пикселя
Соотношение сторон : 1,85:1
Режим частоты кадров : Постоянный
Частота кадров : 23,976 кадра/сек
Цветовое пространство : YUV
Субдискретизация насыщенности : 4:2:0
Битовая глубина : 8 бит
Тип развёртки : Прогрессивная
Бит/(Пиксели*Кадры) : 0.147
Размер потока : 4,79 Гбайт (93%)
Заголовок : Vidok.3D.2001.(Anaglyph).BDRip.1080p.mkv
Библиотека кодирования : x264 core 120
Настройки программы : cabac=1 / ref=4 / deblock=1:0:0 / analyse=0x3:0x113 / me=umh / subme=9 / psy=1 / psy_rd=1.00:0.00 / mixed_ref=1 / me_range=16 / chroma_me=1 / trellis=2 / 8x8dct=1 / cqm=0 / deadzone=21,11 / fast_pskip=1 / chroma_qp_offset=-2 / threads=3 / sliced_threads=0 / nr=0 / decimate=1 / interlaced=0 / bluray_compat=0 / constrained_intra=0 / bframes=6 / b_pyramid=2 / b_adapt=1 / b_bias=0 / direct=1 / weightb=1 / open_gop=0 / weightp=2 / keyint=240 / keyint_min=24 / scenecut=40 / intra_refresh=0 / rc_lookahead=10 / rc=abr / mbtree=1 / bitrate=7059 / ratetol=1.0 / qcomp=0.60 / qpmin=3 / qpmax=69 / qpstep=4 / ip_ratio=1.40 / aq=1:1.00
Язык : English
Default : Да
Forced : Нет
Основные цвета : BT.709
Характеристики трансфера : BT.709
Коэффициенты матрицы : BT.709

Аудио
Идентификатор : 2
Формат : AC-3
Формат/Информация : Audio Coding 3
Расширение режима : CM (complete main)
Параметр Endianness формата : Big
Идентификатор кодека : A_AC3
Продолжительность : 1 ч. 37 м.
Вид битрейта : Постоянный
Битрейт : 384 Кбит/сек
Каналы : 6 каналов
Расположение каналов : Front: L C R, Side: L R, LFE
Частота : 48,0 КГц
Битовая глубина : 16 бит
Метод сжатия : С потерями
Задержка видео : 1 с. 0 мс.
Размер потока : 268 Мбайт (5%)
Язык : Russian
Default : Да
Forced : Да


Видок скачать торрент


pb.wtf



Скачать Видок через торрент http://i53.fastpic.ru/big/2013/0214/73/4304140e41c744220bda32693db1c673.jpg Скачать фильм Видок через торрент бесплантно в хорошем качестве Описание: Париж ХIХ века охвачен паникой. В его «чреве» завелся серийный убийца, которого может вычислить только гениальный сыщик Видок. ... 5.5 10 2
Info! Золотая раздача, скачанное не засчитывается.
Торрент: Зарегистрирован [2013-02-14 18:47] · скачан: 83 раз
Статус: √ проверено
Размер: 5.15 GB
Как cкачать? Как скачать Видок через торрент | UTorrent

28-11-2019 20:33  

Отключить всю рекламу на сайте


    Дорогой пользователь! Огромная просьба, поблагодарите релизера, оцените раздачу и оставьте свои комментарий, если Вы скачали Видок через торрент бесплатно! Внесите свою лепту в развитие PiratBit!
    Комментировать посты могут только пользователи прошедшие не сложную регистрацию
    Показать сообщения:    

    Видок через торрент
    Скачать бесплатно Видок
    Видок скачать торрент
    Видок смотреть онлайн
    Cкачать фильм Видок бесплатно
    Видок скачать торрент в хорошем качестве
    Видок смотреть онлайн бесплатно в хорошем качестве


    Вы не можете начинать темы
    Вы не можете отвечать на сообщения
    Вы не можете редактировать свои сообщения
    Вы не можете удалять свои сообщения
    Вы не можете голосовать в опросах
    Вы не можете прикреплять файлы к сообщениям
    Вы можете скачивать файлы