1 сезон

3 сезон

iTunes

1

Line

MVO

iTunes

13

1 сезон

RePack

30

Deluxe

pack

Лицензия

ВАЖНО

ИГРА 18+

pack

RePack

MK11

RePack

jed

RePack

fifa19

RePack

RDR2

RePack

NEED FOR SPEED™ PAYBACK

4 сезон

9 сезон

Бесстыжие 9 сезон

Все сериалы

все сериалы на PB.wtf

RePack

FAR CRY 5

Anonymous, доброй ночи, мы катастрофически не успеваем собрать деньги на оплату серверов, помогите нам пожалуйста 5,10,15р., для нас важна любая помощь . В качестве благодарности мы отключим Вам всю рекламу на сайте (укажите свой ник в строку Ваше имя)!

×
  
Magnet ссылка

Смертельная гонка 3: Ад / Death Race: Inferno (Роэль Рейн / Roel Reine) [2013, боевик, триллер, криминал, DVD9] R5 pb.wtf

Смертельная гонка 3: Ад через торрент pb.wtf

Размер: 7.2 GB | Добавлен: 8 лет 5 мес. назад | Торрент скачан:85 раз
Скачать  

16-02-2013 20:38 Смертельная гонка 3: Ад Скачать торрент  


Смертельная гонка 3: Ад / Death Race: Inferno
Страна: США
Студия: Moonlighting Films South Africa
Жанр: боевик, триллер, криминал
Год выпуска: 2013
Мировая премьера: 22 января 2013
Дата выхода DVD: 14 февраля 2013
Дата выхода Blu-Ray: 14 февраля 2013
Продолжительность: 01:40:55
Перевод: Профессиональный (дублированный) [Лицензия]
Cубтитры: русские, английские, немецкие, итальянские, турецкие, болгарские, греческие, румынские, эстонские, латышские, литовские
Оригинальная аудиодорожка: английский
Режиссер: Роэль Рейн / Roel Reine
В ролях: Дэнни Трехо, Винг Реймз, Дюгрэй Скотт, Люк Госс, Танит Феникс, Робин Шоу, Фредерик Колер, Таня ван Граан, Лэнгли Кирквуд, Шон Майкл
Описание: Карл Лукас по прозвищу Франкенштейн — раскаявшийся преступник, легендарный участник жестокого и кровавого тюремного соревнования под названием Смертельная гонка. Чтобы обрести долгожданную свободу, ему осталось одержать лишь одну победу, но эта гонка опасна как никогда, ведь на этот раз она проходит в пустыне!
Чтобы доказать свое превосходство, Лукасу предстоит справиться не только с безжалостными соперниками-гонщиками, но и с таинственными влиятельными врагами в смертоносной южно-африканской пустыне.

Бонусы: нет

Релиз группы:
Качество: DVD9 R5
Формат: DVD-Video
Видео кодек: MPEG2
Аудио кодек: AC3
Видео: PAL 16:9 (720x576(0.709)) MPEG Video, 25,000 кадр/сек, 7355 Кбит/сек
Аудио #1: English (Dolby AC3, 6 ch) 384 Кбит/сек, 48,0 КГц
Аудио #2: Deutsch (Dolby AC3, 6 ch) 384 Кбит/сек, 48,0 КГц
Аудио #3: Italiano (Dolby AC3, 6 ch) 384 Кбит/сек, 48,0 КГц
Аудио #4: Russian (Dolby AC3, 6 ch) 384 Кбит/сек, 48,0 КГц
Аудио #5: Turkish (Dolby AC3, 6 ch) 384 Кбит/сек, 48,0 КГц



Title: Smertelnaja.gonka.3.Ad.2013.DVD9
Size: 7.20 Gb ( 7 544 872,00 KBytes ) - DVD-9
Enabled regions: 1, 2, 3, 4, 5, 6, 7, 8

VTS_01 :
Play Length: 00:00:25
Video: PAL 16:9 (720x576) VBR, Auto Letterboxed
Audio:
English (Dolby AC3, 6 ch)

VTS_02 :
Play Length: 00:00:14
Video: PAL 16:9 (720x576) VBR, Auto Letterboxed
Audio:
English (Dolby AC3, 6 ch)

VTS_03 :
Play Length: 00:00:00
Video: PAL 16:9 (720x576) VBR, Auto Letterboxed

VTS_04 :
Play Length: 01:40:55
Video: PAL 16:9 (720x576) VBR, Auto Letterboxed
Audio:
English (Dolby AC3, 6 ch)
Deutsch (Dolby AC3, 6 ch)
Italiano (Dolby AC3, 6 ch)
Russian (Dolby AC3, 6 ch)
Turkish (Dolby AC3, 6 ch)
Subtitles:
English
Deutsch
Italiano
Russian
Turkish
Bulgarian
Greek
Romanian
Estonian
Latvian
Lithuanian
Deutsch
Italiano
Russian
Turkish

* Menus Information *

VIDEO_TS Menu
Video:
PAL 16:9 (720x576) VBR
Auto Pan&Scan
English Language Unit :
Title Menu

VTS_01 Menu
Video:
NTSC 4:3 (720x480) VBR
Auto Pan&Scan, Auto Letterboxed
English Language Unit :
Root Menu

VTS_02 Menu
Video:
NTSC 4:3 (720x480) VBR
Auto Pan&Scan, Auto Letterboxed
English Language Unit :
Root Menu

VTS_03 Menu
Video:
NTSC 4:3 (720x480) VBR
Auto Pan&Scan, Auto Letterboxed
English Language Unit :
Root Menu

VTS_04 Menu
Video:
PAL 16:9 (720x576) VBR
Auto Letterboxed
Audio:
Not specified (Dolby AC3, 2 ch)
English Language Unit :
Root Menu
Subpicture Menu
Audio Menu
Angle menu
Chapter (PTT) Menu
Общее
Полное имя : J:Новинки 2012Smertelnaja.gonka.3.Ad.2013.DVD9VIDEO_TSVTS_04_2.VOB
Формат : MPEG-PS
Размер файла : 1024 Мбайт
Продолжительность : 15 м.
Режим общего битрейта : Переменный
Общий поток : 9463 Кбит/сек

Видео
Идентификатор : 224 (0xE0)
Формат : MPEG Video
Версия формата : Version 2
Профиль формата : Main@Main
Параметр BVOP формата : Да
Параметр матрицы формата : Выборочная
Параметр GOP формата : Variable
Продолжительность : 15 м.
Вид битрейта : Переменный
Битрейт : 7355 Кбит/сек
Максимальный битрейт : 9800 Кбит/сек
Ширина : 720 пикселей
Высота : 576 пикселей
Соотношение сторон : 16:9
Частота кадров : 25,000 кадров/сек
Стандарт вещания : PAL
Цветовое пространство : YUV
Субдискретизация насыщенности : 4:2:0
Битовая глубина : 8 бит
Тип развёртки : Чересстрочная
Порядок развёртки : Верхнее поле первое
Метод сжатия : С потерями
Бит/(Пиксели*Кадры) : 0.709
Размер потока : 796 Мбайт (78%)

Аудио #1
Идентификатор : 189 (0xBD)-128 (0x80)
Формат : AC-3
Формат/Информация : Audio Coding 3
Расширение режима : CM (complete main)
Параметр Endianness формата : Big
Режим смешивания : DVD-Video
Продолжительность : 15 м.
Вид битрейта : Постоянный
Битрейт : 384 Кбит/сек
Каналы : 6 каналов
Расположение каналов : Front: L C R, Side: L R, LFE
Частота : 48,0 КГц
Битовая глубина : 16 бит
Метод сжатия : С потерями
Задержка видео : -304 мс.
Размер потока : 41,6 Мбайт (4%)

Аудио #2
Идентификатор : 189 (0xBD)-129 (0x81)
Формат : AC-3
Формат/Информация : Audio Coding 3
Расширение режима : CM (complete main)
Параметр Endianness формата : Big
Режим смешивания : DVD-Video
Продолжительность : 15 м.
Вид битрейта : Постоянный
Битрейт : 384 Кбит/сек
Каналы : 6 каналов
Расположение каналов : Front: L C R, Side: L R, LFE
Частота : 48,0 КГц
Битовая глубина : 16 бит
Метод сжатия : С потерями
Задержка видео : -304 мс.
Размер потока : 41,6 Мбайт (4%)

Аудио #3
Идентификатор : 189 (0xBD)-130 (0x82)
Формат : AC-3
Формат/Информация : Audio Coding 3
Расширение режима : CM (complete main)
Параметр Endianness формата : Big
Режим смешивания : DVD-Video
Продолжительность : 15 м.
Вид битрейта : Постоянный
Битрейт : 384 Кбит/сек
Каналы : 6 каналов
Расположение каналов : Front: L C R, Side: L R, LFE
Частота : 48,0 КГц
Битовая глубина : 16 бит
Метод сжатия : С потерями
Задержка видео : -304 мс.
Размер потока : 41,6 Мбайт (4%)

Аудио #4
Идентификатор : 189 (0xBD)-131 (0x83)
Формат : AC-3
Формат/Информация : Audio Coding 3
Расширение режима : CM (complete main)
Параметр Endianness формата : Big
Режим смешивания : DVD-Video
Продолжительность : 15 м.
Вид битрейта : Постоянный
Битрейт : 384 Кбит/сек
Каналы : 6 каналов
Расположение каналов : Front: L C R, Side: L R, LFE
Частота : 48,0 КГц
Битовая глубина : 16 бит
Метод сжатия : С потерями
Задержка видео : -304 мс.
Размер потока : 41,6 Мбайт (4%)

Аудио #5
Идентификатор : 189 (0xBD)-132 (0x84)
Формат : AC-3
Формат/Информация : Audio Coding 3
Расширение режима : CM (complete main)
Параметр Endianness формата : Big
Режим смешивания : DVD-Video
Продолжительность : 15 м.
Вид битрейта : Постоянный
Битрейт : 384 Кбит/сек
Каналы : 6 каналов
Расположение каналов : Front: L C R, Side: L R, LFE
Частота : 48,0 КГц
Битовая глубина : 16 бит
Метод сжатия : С потерями
Задержка видео : -304 мс.
Размер потока : 41,6 Мбайт (4%)

Текст #1
Идентификатор : 189 (0xBD)-32 (0x20)
Формат : RLE
Формат/Информация : Run-length encoding
Режим смешивания : DVD-Video

Текст #2
Идентификатор : 189 (0xBD)-33 (0x21)
Формат : RLE
Формат/Информация : Run-length encoding
Режим смешивания : DVD-Video

Текст #3
Идентификатор : 189 (0xBD)-34 (0x22)
Формат : RLE
Формат/Информация : Run-length encoding
Режим смешивания : DVD-Video

Текст #4
Идентификатор : 189 (0xBD)-35 (0x23)
Формат : RLE
Формат/Информация : Run-length encoding
Режим смешивания : DVD-Video

Текст #5
Идентификатор : 189 (0xBD)-36 (0x24)
Формат : RLE
Формат/Информация : Run-length encoding
Режим смешивания : DVD-Video

Текст #6
Идентификатор : 189 (0xBD)-37 (0x25)
Формат : RLE
Формат/Информация : Run-length encoding
Режим смешивания : DVD-Video

Текст #7
Идентификатор : 189 (0xBD)-38 (0x26)
Формат : RLE
Формат/Информация : Run-length encoding
Режим смешивания : DVD-Video

Текст #8
Идентификатор : 189 (0xBD)-39 (0x27)
Формат : RLE
Формат/Информация : Run-length encoding
Режим смешивания : DVD-Video

Текст #9
Идентификатор : 189 (0xBD)-40 (0x28)
Формат : RLE
Формат/Информация : Run-length encoding
Режим смешивания : DVD-Video

Текст #10
Идентификатор : 189 (0xBD)-41 (0x29)
Формат : RLE
Формат/Информация : Run-length encoding
Режим смешивания : DVD-Video

Текст #11
Идентификатор : 189 (0xBD)-42 (0x2A)
Формат : RLE
Формат/Информация : Run-length encoding
Режим смешивания : DVD-Video










pb.wtf



Скачать Смертельная гонка 3: Ад через торрент http://s020.radikal.ru/i709/1303/b9/b8677f5314a9.jpg Скачать фильм Смертельная гонка 3: Ад через торрент бесплантно в хорошем качестве Описание: Карл Лукас по прозвищу Франкенштейн — раскаявшийся преступник, легендарный участник жестокого и кровавого тюремного соревнования ... 10 10 4
Info! Золотая раздача, скачанное не засчитывается.
Торрент: Зарегистрирован [2013-02-16 20:38] · скачан: 85 раз
Статус: √ проверено
Размер: 7.2 GB
Как cкачать? Как скачать Смертельная гонка 3: Ад через торрент | UTorrent

28-11-2019 20:33  

Отключить всю рекламу на сайте

    Дорогой пользователь! Огромная просьба, поблагодарите релизера, оцените раздачу и оставьте свои комментарий, если Вы скачали Смертельная гонка 3: Ад через торрент бесплатно! Внесите свою лепту в развитие PiratBit!
    Комментировать посты могут только пользователи прошедшие не сложную регистрацию
    Показать сообщения:    

    Смертельная гонка 3: Ад через торрент
    Скачать бесплатно Смертельная гонка 3: Ад
    Смертельная гонка 3: Ад скачать торрент
    Смертельная гонка 3: Ад смотреть онлайн
    Cкачать фильм Смертельная гонка 3: Ад бесплатно
    Смертельная гонка 3: Ад скачать торрент в хорошем качестве
    Смертельная гонка 3: Ад смотреть онлайн бесплатно в хорошем качестве


    Вы не можете начинать темы
    Вы не можете отвечать на сообщения
    Вы не можете редактировать свои сообщения
    Вы не можете удалять свои сообщения
    Вы не можете голосовать в опросах
    Вы не можете прикреплять файлы к сообщениям
    Вы можете скачивать файлы