Ссылка на приватное зеркало нашего сайта всего за 1$. Внимание количество ограничено!!!

2 сезон

iTunes

1 сезон

1

iTunes

iTunes

iTunes

1 сезон

RePack

30

ИГРА 18+

pack

ВАЖНО

!!Акция!!

Alien_RageХит недели

RePack

MK11
pack

Забери бонус

RePack

jed

!!Акция!!

Alien_Rage

RePack

fifa19

RePack

Assassins Creed: Odyssey

RePack

NEED FOR SPEED™ PAYBACK

4 сезон

9 сезон

Бесстыжие 9 сезон

Все сериалы

все сериалы на PB.wtf

RePack

FAR CRY 5
  

Астерикс и Обеликс в Британии / Astйrix et Obйlix: Au service de Sa Majestй (Лоран Тирар) [2012 г., комедия, приключения, семейный, BDRip 1080p, DUB + Оригинал] pb.wtf

Астерикс и Обеликс в Британии через торрент pb.wtf

Размер: 7.99 GB | Добавлен: 7 лет 8 мес. назад | Торрент скачан:557 раз
Скачать  

17-02-2013 09:40 Астерикс и Обеликс в Британии Скачать торрент  

Астерикс и Обеликс в Британии / Astйrix et Obйlix: Au service de Sa MajestйГод выпуска: 2012
Страна: Венгрия, Испания, Италия, Франция / Bruxelles Capitale, Cinetotal, Fidйlitй Films, France Tйlйvision, Les Editions Albert Renй, Lucky Red, Morena Films S.L.
Жанр: комедия, приключения, семейный
Продолжительность: 01:50:15
Перевод: Дубляж + Оригинал

Режиссер: Лоран Тирар

В ролях: Жерар Депардье, Эдуард Баэр, Гийом Гальенн, Венсан Лакост, Валери Лемерсье, Фабрис Лукини, Катрин Денёв, Шарлотта Лебон, Боли Ланнерс, Дэни Бун

Описание: Пятидесятый год до нашей эры. Юлий Цезарь рвется к новым завоеваниям. Во главе своих прославленных легионов он собирается захватить остров, который находится на самом краю света — таинственную страну, именуемую Британией. Войско Цезаря одерживает быструю и безоговорочную победу. Ну… почти безоговорочную: одна крошечная деревушка продолжает яростно обороняться, однако силы на исходе, и королева бриттов Корделия отправляет офицера Красовакса за подмогой в Галлию. Когда к галлам приезжает Красовакс, те снабжают его бочонком своего знаменитого волшебного зелья, а Астерикс и Обеликс отправляются вместе с ним в Британию. Гадорикса они тоже берут с собой, ведь путешествие — отличный способ пополнить образование молодого человека. Но, к сожалению, все идет не так, как задумывалось…

Качество: BDRip 1080p
Формат: MKV
Видео кодек: MPEG-4 AVC/H.264
Аудио кодек: AC3 5.1 | DTS
Видео: 1920 x 800 (2.400) at 23.976 fps : 0.229 Bit/Pixel 8425 Kb/s
Аудио#1: AC3 448 Кбит/сек (6ch), 48,0 КГц, 16 бит [Русский, Дубляж]
Аудио#2: DTS 1510 Кбит/сек (6ch), 48,0 КГц, 24 бит [Французский]
Общее
Полное имя : Asteriks.i.Obeliks.v.Britanii.2012.D.BDRip.1080p.UNIONGANG.mkv
Формат : Matroska
Версия формата : Version 2
Размер файла : 7,99 Гбайт
Продолжительность : 1 ч. 50 м.
Общий поток : 10,4 Мбит/сек
Дата кодирования : UTC 2013-02-16 11:06:43
Программа кодирования : mkvmerge v5.5.0 ('Healer') built on Apr 6 2012 21:43:24
Библиотека кодирования : libebml v1.2.3 + libmatroska v1.3.0

Видео
Идентификатор : 1
Формат : AVC
Формат/Информация : Advanced Video Codec
Профиль формата : High@L4.1
Параметр CABAC формата : Да
Параметр ReFrames формата : 5 кадров
Режим смешивания : Header stripping
Идентификатор кодека : V_MPEG4/ISO/AVC
Продолжительность : 1 ч. 50 м.
Битрейт : 8425 Кбит/сек
Ширина : 1920 пикселей
Высота : 800 пикселей
Соотношение сторон : 2,40:1
Режим частоты кадров : Постоянный
Частота кадров : 23,976 кадра/сек
Цветовое пространство : YUV
Субдискретизация насыщенности : 4:2:0
Битовая глубина : 8 бит
Тип развёртки : Прогрессивная
Бит/(Пиксели*Кадры) : 0.229
Размер потока : 6,33 Гбайт (79%)
Библиотека кодирования : x264 core 129 r2230 1cffe9f
Настройки программы : cabac=1 / ref=5 / deblock=1:0:0 / analyse=0x3:0x113 / me=umh / subme=8 / psy=1 / psy_rd=1.00:0.00 / mixed_ref=1 / me_range=16 / chroma_me=1 / trellis=1 / 8x8dct=1 / cqm=0 / deadzone=21,11 / fast_pskip=1 / chroma_qp_offset=-2 / threads=12 / lookahead_threads=2 / sliced_threads=0 / nr=0 / decimate=1 / interlaced=0 / bluray_compat=0 / constrained_intra=0 / bframes=3 / b_pyramid=2 / b_adapt=2 / b_bias=0 / direct=3 / weightb=1 / open_gop=0 / weightp=2 / keyint=240 / keyint_min=24 / scenecut=40 / intra_refresh=0 / rc_lookahead=50 / rc=2pass / mbtree=1 / bitrate=8425 / ratetol=1.0 / qcomp=0.60 / qpmin=0 / qpmax=69 / qpstep=4 / cplxblur=20.0 / qblur=0.5 / ip_ratio=1.40 / aq=1:1.00
Язык : English
Default : Да
Forced : Нет

Аудио #1
Идентификатор : 2
Формат : AC-3
Формат/Информация : Audio Coding 3
Расширение режима : CM (complete main)
Параметр Endianness формата : Big
Идентификатор кодека : A_AC3
Продолжительность : 1 ч. 50 м.
Вид битрейта : Постоянный
Битрейт : 448 Кбит/сек
Каналы : 6 каналов
Расположение каналов : Front: L C R, Side: L R, LFE
Частота : 48,0 КГц
Битовая глубина : 16 бит
Метод сжатия : С потерями
Размер потока : 353 Мбайт (4%)
Язык : Russian
Default : Да
Forced : Нет

Аудио #2
Идентификатор : 3
Формат : DTS
Формат/Информация : Digital Theater Systems
Режим смешивания : Header stripping
Идентификатор кодека : A_DTS
Продолжительность : 1 ч. 50 м.
Вид битрейта : Постоянный
Битрейт : 1510 Кбит/сек
Каналы : 6 каналов
Расположение каналов : Front: L C R, Side: L R, LFE
Частота : 48,0 КГц
Битовая глубина : 24 бит
Метод сжатия : С потерями
Размер потока : 1,16 Гбайт (15%)
Заголовок : French DTS 1509kbps
Язык : French
Default : Нет
Forced : Нет

Меню
00:00:00.000 : en:00:00:00.000
00:06:09.286 : en:00:06:09.286
00:15:17.708 : en:00:15:17.708
00:20:36.068 : en:00:20:36.068
00:30:28.243 : en:00:30:28.243
00:36:35.068 : en:00:36:35.068
00:44:20.825 : en:00:44:20.825
00:49:12.408 : en:00:49:12.408
00:54:29.433 : en:00:54:29.433
01:02:22.447 : en:01:02:22.447
01:09:49.143 : en:01:09:49.143
01:15:12.633 : en:01:15:12.633
01:19:55.833 : en:01:19:55.833
01:26:46.410 : en:01:26:46.410
01:37:37.351 : en:01:37:37.351
01:43:43.968 : en:01:43:43.968
pb.wtf



Скачать Астерикс и Обеликс в Британии через торрент http://i52.fastpic.ru/big/2013/0215/0a/fa4527cfbf50272195b2e9462a36980a.png Скачать фильм Астерикс и Обеликс в Британии через торрент бесплантно в хорошем качестве Описание: Пятидесятый год до нашей эры. Юлий Цезарь рвется к новым завоеваниям. Во главе своих прославленных легионов он собирается ... 10 10 1
Info! Золотая раздача, скачанное не засчитывается.
Торрент: Зарегистрирован [2013-02-17 09:40] · скачан: 557 раз
Статус: √ проверено
Размер: 7.99 GB
Как cкачать? Как скачать Астерикс и Обеликс в Британии через торрент | qTorrent

% Раздел Тема Автор DL S | L
Фильмы [HD 720p, 1080p] (Хороший звук DUB, MVO) [ 3.9 GB ] Астерикс и Обеликс в Британии / Astйrix et Obйlix: Au service de Sa Majestй [2012 BDRip 720p DUB + Оригинал лицензия] Sудья Скачать
1 | 0

28-11-2019 20:33  

Отключить всю рекламу на сайте

17-02-2013 13:14 Астерикс и Обеликс в Британии Скачать торрент  

Ща посмотрим pb.wtf



18-02-2013 06:07 Астерикс и Обеликс в Британии Скачать торрент  

Ни на телеке не воспроизводится ни на медиаплеере . что ж за кодек у вас автор ? . не можете делать формат МКV не делайте . pb.wtf



    Дорогой пользователь! Огромная просьба, поблагодарите релизера, оцените раздачу и оставьте свои комментарий, если Вы скачали Астерикс и Обеликс в Британии через торрент бесплатно! Внесите свою лепту в развитие PiratBit!
    Комментировать посты могут только пользователи прошедшие не сложную регистрацию
    Показать сообщения:    

    Астерикс и Обеликс в Британии через торрент
    Скачать бесплатно Астерикс и Обеликс в Британии
    Астерикс и Обеликс в Британии скачать торрент
    Астерикс и Обеликс в Британии смотреть онлайн
    Cкачать фильм Астерикс и Обеликс в Британии бесплатно
    Астерикс и Обеликс в Британии скачать торрент в хорошем качестве
    Астерикс и Обеликс в Британии смотреть онлайн бесплатно в хорошем качестве


    Вы не можете начинать темы
    Вы не можете отвечать на сообщения
    Вы не можете редактировать свои сообщения
    Вы не можете удалять свои сообщения
    Вы не можете голосовать в опросах
    Вы не можете прикреплять файлы к сообщениям
    Вы можете скачивать файлы