Доктор Стрэндж

Лицензия

Добыча

MVO

Дом дракона

1 сезон

Тор

Лицензия

Мэверик

Лицензия

Там, где раки поют

MVO

Властелин колец

1 сезон

Ultimate

pack

Рекомендуем

30

Repack

ВАЖНО

ВАЖНО

Ghostwire

RePack

jed

RePack

nioh2

RePack

RDR2

RePack

NEED FOR SPEED™ PAYBACK

RePack

скачать торрент

Кинопоиск HD

Острые козырьки 6 сезон

6 сезон

FAR CRY 6

RePack

скачать торрент

Лицензия

скачать торрент

MVO

1

1 сезон

скачать торрент

1 сезон

скачать торрент

Лицензия

  

Замбезия / Zambezia (Уэйн Тонли) [2012 г., мультфильм, комедия, приключения, семейный, BDRip 1080p, DUB] Anaglyph, red'cyan

Замбезия через торрент pb.wtf

Размер: 4.73 GB | Добавлен: 9 лет 7 мес. назад | Торрент скачан:63 раза
Смотреть онлайн Замбезия | Скачать   

17-02-2013 11:58 Замбезия Скачать торрент  

Замбезия / Zambezia

Год выпуска: 2012
Страна: ЮАР
Жанр: мультфильм, комедия, приключения, семейный
Продолжительность: 01:22:26
Перевод: Профессиональный (полное дублирование) Лицензия + Оригинал

Режиссер: Уэйн Тонли
Продюссер: Клер Бекер, Ванесса Синден, Грег Бекер
Сценарий: Камилла Бубна-Кастелис, Эндрю Кук, Раффаелла Делле Донне

Бюджет: $20 000 000
Премьера в мире: 5 июня 2012

Мировой рейтинг IMDB 5.10 (483)


Роли озвучивали: Эбигейл Бреслин, Джефф Голдблюм, Ямал Миксон, Сэмюэл Л. Джексон, Дженифер Льюис, Ричард Э. Грант, Дэвид Шонесси, Норин ДеВулф, Таня Гунади, Дип Рой,
Роли дублировали: Вероника Саркисова, Эвелина Блёданс, Пётр Иващенко, Сергей Чихачев, Гавриил Гордеев

Описание: В мультфильме рассказывается история жизни юного соколёнка по имени Кай, его приключения, характер, комичные ситуации в которые он попадает на пути к своей главной цели, на пути к заветному птичьему городку Замбезия, в котором он от всей души желает отыскать новых друзей, которые бы скрасили его одиночество и не оставили в беде. Однако для начала ему необходимо преодолеть путь, который полон опасностей и неожиданных поворотов.

Доп. информация:
Формат 3d: Anaglyph, red'cyan


Качество: BDRip 1080p
Формат: MKV
Видео кодек: AVC
Аудио кодек: AC3
Видео: 1920х1036 / 23,962 fps, (1,85:1) / 7288 Kbps, (0.153 bit/pixel)
Аудио#1: Dolby AC3, 6 ch, 384 Кбит/сек, 48,0 КГц | Russian |
Аудио#2: Dolby AC3, 6 ch, 384 Кбит/сек, 48,0 КГц | English |
Субтитры: русские




Общее
Уникальный идентификатор : 215826568833010954702296702611032617706 (0xA25EAF675D9C315EA73C2961BCFFB2EA)
Полное имя : D:DVDZambezia.3D.2012.BDRip(Anaglyph).mkv
Формат : Matroska
Версия формата : Version 2
Размер файла : 4,73 Гбайт
Продолжительность : 1 ч. 22 м.
Общий поток : 8220 Кбит/сек
Название фильма : Zambezia.3D.2012.BDRip.(Anaglyph)
Дата кодирования : UTC 2013-02-16 18:46:45
Программа кодирования : mkvmerge v4.0.0 ('The Stars were mine') сборка от Jun 6 2010 16:18:42
Библиотека кодирования : libebml v1.0.0 + libmatroska v1.0.0

Видео
Идентификатор : 1
Формат : AVC
Формат/Информация : Advanced Video Codec
Профиль формата : [email protected]
Параметр CABAC формата : Да
Параметр ReFrames формата : 4 кадра
Идентификатор кодека : V_MPEG4/ISO/AVC
Продолжительность : 1 ч. 22 м.
Битрейт : 7288 Кбит/сек
Номинальный битрейт : 7770 Кбит/сек
Ширина : 1920 пикселей
Высота : 1036 пикселей
Соотношение сторон : 1,85:1
Режим частоты кадров : Постоянный
Частота кадров : 23,962 кадра/сек
Цветовое пространство : YUV
Субдискретизация насыщенности : 4:2:0
Битовая глубина : 8 бит
Тип развёртки : Прогрессивная
Бит/(Пиксели*Кадры) : 0.153
Размер потока : 4,20 Гбайт (89%)
Заголовок : Zambezia.3D.2012.BDRip.(Anaglyph).mkv
Библиотека кодирования : x264 core 120
Настройки программы : cabac=1 / ref=3 / deblock=1:0:0 / analyse=0x3:0x113 / me=hex / subme=7 / psy=1 / psy_rd=1.00:0.00 / mixed_ref=1 / me_range=16 / chroma_me=1 / trellis=1 / 8x8dct=1 / cqm=0 / deadzone=21,11 / fast_pskip=1 / chroma_qp_offset=-2 / threads=3 / sliced_threads=0 / nr=0 / decimate=1 / interlaced=0 / bluray_compat=0 / constrained_intra=0 / bframes=3 / b_pyramid=2 / b_adapt=1 / b_bias=0 / direct=1 / weightb=1 / open_gop=0 / weightp=2 / keyint=240 / keyint_min=24 / scenecut=40 / intra_refresh=0 / rc_lookahead=40 / rc=abr / mbtree=1 / bitrate=7770 / ratetol=1.0 / qcomp=0.60 / qpmin=3 / qpmax=69 / qpstep=4 / ip_ratio=1.40 / aq=1:1.00
Язык : English
Default : Да
Forced : Нет
Основные цвета : BT.709
Характеристики трансфера : BT.709
Коэффициенты матрицы : BT.709

Аудио #1
Идентификатор : 2
Формат : AC-3
Формат/Информация : Audio Coding 3
Расширение режима : CM (complete main)
Параметр Endianness формата : Big
Идентификатор кодека : A_AC3
Продолжительность : 1 ч. 22 м.
Вид битрейта : Постоянный
Битрейт : 384 Кбит/сек
Каналы : 6 каналов
Расположение каналов : Front: L C R, Side: L R, LFE
Частота : 48,0 КГц
Битовая глубина : 16 бит
Метод сжатия : С потерями
Размер потока : 226 Мбайт (5%)
Заголовок : Dub
Язык : Russian
Default : Да
Forced : Да

Аудио #2
Идентификатор : 3
Формат : AC-3
Формат/Информация : Audio Coding 3
Расширение режима : CM (complete main)
Параметр Endianness формата : Big
Идентификатор кодека : A_AC3
Продолжительность : 1 ч. 22 м.
Вид битрейта : Постоянный
Битрейт : 384 Кбит/сек
Каналы : 6 каналов
Расположение каналов : Front: L C R, Side: L R, LFE
Частота : 48,0 КГц
Битовая глубина : 16 бит
Метод сжатия : С потерями
Размер потока : 226 Мбайт (5%)
Язык : English
Default : Нет
Forced : Нет

Текст
Идентификатор : 4
Формат : UTF-8
Идентификатор кодека : S_TEXT/UTF8
Идентификатор кодека/Информация : UTF-8 Plain Text
Заголовок : Полные
Язык : Russian
Default : Нет
Forced : Нет



Скачать Замбезия через торрент http://i48.fastpic.ru/big/2012/1106/48/7e3a3c7c1e9f8b2489434fdbe3ae6448.jpg Скачать, смотреть онлайн Замбезия бесплантно в хорошем качестве Описание: В мультфильме рассказывается история жизни юного соколёнка по имени Кай, его приключения, характер, комичные ситуации в которые ... 10 10 1
Info! Золотая раздача, скачанное не засчитывается.
Торрент: Зарегистрирован [2013-02-17 11:58] · скачан: 63 раз
Статус: √ проверено
Размер: 4.73 GB
Как cкачать? Как скачать Замбезия через торрент | UTorrent

28-11-2019 20:33  

Отключить вcю реклaмy на сайте

    Дорогой пользователь! Огромная просьба, поблагодарите релизера, оцените раздачу и оставьте свои комментарий, если Вы скачали Замбезия через торрент бесплатно!!
    Комментировать посты могут только пользователи прошедшие не сложную регистрацию
    Показать сообщения:    


    Замбезия через торрент
    Скачать бесплатно Замбезия
    Замбезия скачать торрент
    Замбезия смотреть онлайн
    Cкачать фильм Замбезия бесплатно
    Замбезия скачать торрент в хорошем качестве
    Замбезия смотреть онлайн бесплатно в хорошем качестве
    Вы не можете начинать темы
    Вы не можете отвечать на сообщения
    Вы не можете редактировать свои сообщения
    Вы не можете удалять свои сообщения
    Вы не можете голосовать в опросах
    Вы не можете прикреплять файлы к сообщениям
    Вы можете скачивать файлы