2 сезон

iTunes

1 сезон

1

iTunes

iTunes

iTunes

1 сезон

RePack

30

ИГРА 18+

pack

ВАЖНО

!!Акция!!

Alien_RageХит недели

RePack

MK11
pack

Забери бонус

RePack

jed

!!Акция!!

Alien_Rage

RePack

fifa19

RePack

Assassins Creed: Odyssey

RePack

NEED FOR SPEED™ PAYBACK

4 сезон

9 сезон

Бесстыжие 9 сезон

Все сериалы

все сериалы на PB.wtf

RePack

FAR CRY 5
  

Тринадцать привидений / Thir13en Ghosts (Стив Бек) [2001 г., ужасы, триллер, детектив, BDRip 720p, DUB, лицензия] pb.wtf

Тринадцать привидений через торрент pb.wtf

Размер: 13.88 GB | Добавлен: 7 лет 8 мес. назад | Торрент скачан:36 раз
Скачать  

18-02-2013 19:44 Тринадцать привидений Скачать торрент  

Тринадцать привидений / Thir13en Ghosts

Год выпуска: 2001
Страна: США, Канада
Жанр: ужасы, триллер, детектив
Продолжительность: 01:30:49
Перевод: Дубляж, Лицензия

Русские субтитры: есть

Режиссер: Стив Бек
Продюссер: Гилберт Адлер, Джоэл Силвер, Роберт Земекис
Сценарий: Бенжамин Карр, Ричард Д’Овидио, Робб Уайт

Бюджет: $42 000 000

Мировой рейтинг IMDB 5.30 (42 937)


В ролях: Тони Шэлуб (Arthur Kriticos), Эмбет Дэвидц (Kalina Oretzia), Мэттью Лиллард (Dennis Rafkin), Шеннон Элизабет (Kathy Kriticos), Алек Робертс (Robert 'Bobby' Kriticos), ДжейАр Борн (Benjamin Moss), Ра Дигга (Maggie Bess), Ф. Мюррэй Абрахам (Cyrus Kriticos), Мэттью Харрисон (Damon), Джейкоб Рапп (Cyrus' Assistant), Майк Крестеджо (Team Member), Обри Калп (Team Member)

Описание: После смерти своего странного дядюшки Сайруса, Артур Критикос унаследовал его не менее странный дом. В этом причудливом здании все стены и пол из стекла, украшенного латинскими заклинаниями. В этом доме автоматические двери живут своей жизнью, открываясь и закрываясь в ритме, недоступном человеческому пониманию.
Не сразу Артур поймет, что, переступив порог этого жуткого особняка, он исполнит злую волю Сайруса и освободит дюжину мстительных призраков, обитающих в подвале. И тогда энергия духов приведет в действие агрегат, открывающий путь ко всей мощи потустороннего мира. Но для этого нужно, чтобы к черному зодиаку двенадцати привидений присоединилось еще одно...


Качество: BDRip 720p
Формат: MKV
Видео кодек: H.26x
Аудио кодек: AC3/DTS
Видео: 1920x1080 (16:9), 23.976 fps, 17.0 Mbps (0.342 bit/pixel)
Аудио #1: DTS, 48.0 KHz, 6 ch, 1 510 Kbps, CBR (Russian) Карусель
Аудио #2: AC-3, 48.0 KHz, 2 ch, 192 Kbps, CBR (Russian) Дублированный (VHSRip)
Аудио #3: AC-3, 48.0 KHz, 6 ch, 448 Kbps, CBR (Russian) Многоголосый, R5
Аудио #4: AC-3, 48.0 KHz, 2 ch, 192 Kbps, CBR (Russian) Многоголосый, ТВ3 (TVRip)
Аудио #5: AC-3, 48.0 KHz, 2 ch, 192 Kbps, CBR (Russian) Многоголосый
Аудио #6: AC-3, 48.0 KHz, 6 ch, 448 Kbps, CBR (Russian) Гаврилов
Аудио #7: AC-3, 48.0 KHz, 2 ch, 192 Kbps, CBR (Russian) Визгунов
Аудио #8: DTS, 48.0 KHz, 6 ch, 1 510 Kbps, CBR (English)
Аудио #9: AC-3 Dolby Digital, 48.0 KHz, 2 ch, 192 Kbps, CBR (English) Commentary
Субтитры: Russian, English
Общее
Уникальный идентификатор : 188901863433930812382131420304037813778 (0x8E1D2CEFC86744EE980056AAEF2A9E12)
Полное имя : E:Тринадцать привидений.2001.1080p.BDRip7xRus.2xEng..mkv
Формат : Matroska
Версия формата : Version 2
Размер файла : 13,9 Гбайт
Продолжительность : 1 ч. 30 м.
Общий поток : 21,9 Мбит/сек
Название фильма : Thir13en Ghosts (2001) - Release for HDCLUB by Skazhutin
Дата кодирования : UTC 2012-09-01 14:21:32
Программа кодирования : mkvmerge v5.7.0 ('The Whirlwind') built on Jul 8 2012 20:08:51
Библиотека кодирования : libebml v1.2.3 + libmatroska v1.3.0
Attachment : Yes / Yes

Видео
Идентификатор : 1
Формат : AVC
Формат/Информация : Advanced Video Codec
Профиль формата : High@L4.1
Параметр CABAC формата : Да
Параметр ReFrames формата : 4 кадра
Идентификатор кодека : V_MPEG4/ISO/AVC
Продолжительность : 1 ч. 30 м.
Битрейт : 17,0 Мбит/сек
Ширина : 1920 пикселей
Высота : 1080 пикселей
Соотношение сторон : 16:9
Режим частоты кадров : Постоянный
Частота кадров : 23,976 кадра/сек
Цветовое пространство : YUV
Субдискретизация насыщенности : 4:2:0
Битовая глубина : 8 бит
Тип развёртки : Прогрессивная
Бит/(Пиксели*Кадры) : 0.342
Размер потока : 10,5 Гбайт (76%)
Заголовок : Release for HDCLUB
Библиотека кодирования : x264 core 125 r2208kMod d9d2288
Настройки программы : cabac=1 / ref=4 / deblock=1:-2:-2 / analyse=0x3:0x113 / me=umh / subme=11 / psy=1 / fade_compensate=0.00 / psy_rd=1.00:0.00 / mixed_ref=1 / me_range=48 / chroma_me=1 / trellis=2 / 8x8dct=1 / cqm=0 / deadzone=21,11 / fast_pskip=0 / chroma_qp_offset=-2 / threads=12 / lookahead_threads=2 / sliced_threads=0 / nr=0 / decimate=0 / interlaced=0 / bluray_compat=0 / constrained_intra=0 / bframes=7 / b_pyramid=2 / b_adapt=2 / b_bias=0 / direct=3 / weightb=1 / open_gop=0 / weightp=2 / keyint=250 / keyint_min=23 / scenecut=40 / intra_refresh=0 / rc_lookahead=60 / rc=2pass / mbtree=1 / bitrate=17000 / ratetol=1.0 / qcomp=0.80 / qpmin=0 / qpmax=69 / qpstep=4 / cplxblur=20.0 / qblur=0.5 / vbv_maxrate=50000 / vbv_bufsize=62500 / nal_hrd=none / ip_ratio=1.40 / aq=3:0.80
Язык : English
Default : Да
Forced : Нет
Коэффициенты матрицы : BT.709

Аудио #1
Идентификатор : 2
Формат : DTS
Формат/Информация : Digital Theater Systems
Режим : 16
Параметр Endianness формата : Big
Идентификатор кодека : A_DTS
Продолжительность : 1 ч. 30 м.
Вид битрейта : Постоянный
Битрейт : 1509 Кбит/сек
Каналы : 6 каналов
Расположение каналов : Front: L C R, Side: L R, LFE
Частота : 48,0 КГц
Битовая глубина : 24 бит
Метод сжатия : С потерями
Размер потока : 980 Мбайт (7%)
Заголовок : DTS 5.1 @ 1536 kbps - Многоголосый, Карусель
Язык : Russian
Default : Да
Forced : Нет

Аудио #2
Идентификатор : 3
Формат : AC-3
Формат/Информация : Audio Coding 3
Расширение режима : CM (complete main)
Параметр Endianness формата : Big
Идентификатор кодека : A_AC3
Продолжительность : 1 ч. 30 м.
Вид битрейта : Постоянный
Битрейт : 192 Кбит/сек
Каналы : 2 канала
Расположение каналов : Front: L R
Частота : 48,0 КГц
Битовая глубина : 16 бит
Метод сжатия : С потерями
Размер потока : 125 Мбайт (1%)
Заголовок : AC3 2.0 @ 192 kbps - Дублированный, VHS
Язык : Russian
Default : Нет
Forced : Нет

Аудио #3
Идентификатор : 4
Формат : AC-3
Формат/Информация : Audio Coding 3
Расширение режима : CM (complete main)
Параметр Endianness формата : Big
Идентификатор кодека : A_AC3
Продолжительность : 1 ч. 30 м.
Вид битрейта : Постоянный
Битрейт : 448 Кбит/сек
Каналы : 6 каналов
Расположение каналов : Front: L C R, Side: L R, LFE
Частота : 48,0 КГц
Битовая глубина : 16 бит
Метод сжатия : С потерями
Размер потока : 291 Мбайт (2%)
Заголовок : AC3 5.1 @ 448 kbps - Многоголосый, R5
Язык : Russian
Default : Нет
Forced : Нет

Аудио #4
Идентификатор : 5
Формат : AC-3
Формат/Информация : Audio Coding 3
Расширение режима : CM (complete main)
Параметр Endianness формата : Big
Идентификатор кодека : A_AC3
Продолжительность : 1 ч. 30 м.
Вид битрейта : Постоянный
Битрейт : 192 Кбит/сек
Каналы : 2 канала
Расположение каналов : Front: L R
Частота : 48,0 КГц
Битовая глубина : 16 бит
Метод сжатия : С потерями
Размер потока : 125 Мбайт (1%)
Заголовок : AC3 2.0 @ 192 kbps - Многоголосый, ТВ3
Язык : Russian
Default : Нет
Forced : Нет

Аудио #5
Идентификатор : 6
Формат : AC-3
Формат/Информация : Audio Coding 3
Расширение режима : CM (complete main)
Параметр Endianness формата : Big
Идентификатор кодека : A_AC3
Продолжительность : 1 ч. 30 м.
Вид битрейта : Постоянный
Битрейт : 192 Кбит/сек
Каналы : 2 канала
Расположение каналов : Front: L R
Частота : 48,0 КГц
Битовая глубина : 16 бит
Метод сжатия : С потерями
Размер потока : 125 Мбайт (1%)
Заголовок : AC3 2.0 @ 192 kbps - Многоголосый
Язык : Russian
Default : Нет
Forced : Нет

Аудио #6
Идентификатор : 7
Формат : AC-3
Формат/Информация : Audio Coding 3
Расширение режима : CM (complete main)
Параметр Endianness формата : Big
Идентификатор кодека : A_AC3
Продолжительность : 1 ч. 30 м.
Вид битрейта : Постоянный
Битрейт : 448 Кбит/сек
Каналы : 6 каналов
Расположение каналов : Front: L C R, Side: L R, LFE
Частота : 48,0 КГц
Битовая глубина : 16 бит
Метод сжатия : С потерями
Размер потока : 291 Мбайт (2%)
Заголовок : AC3 5.1 @ 448 kbps - Одноголосый, А. Гаврилов
Язык : Russian
Default : Нет
Forced : Нет

Аудио #7
Идентификатор : 8
Формат : AC-3
Формат/Информация : Audio Coding 3
Расширение режима : CM (complete main)
Параметр Endianness формата : Big
Идентификатор кодека : A_AC3
Продолжительность : 1 ч. 30 м.
Вид битрейта : Постоянный
Битрейт : 192 Кбит/сек
Каналы : 2 канала
Расположение каналов : Front: L R
Частота : 48,0 КГц
Битовая глубина : 16 бит
Метод сжатия : С потерями
Размер потока : 125 Мбайт (1%)
Заголовок : AC3 2.0 @ 192 kbps - Одноголосый, С. Визгунов
Язык : Russian
Default : Нет
Forced : Нет

Аудио #8
Идентификатор : 9
Формат : DTS
Формат/Информация : Digital Theater Systems
Режим : 16
Параметр Endianness формата : Big
Идентификатор кодека : A_DTS
Продолжительность : 1 ч. 30 м.
Вид битрейта : Постоянный
Битрейт : 1510 Кбит/сек
Каналы : 6 каналов
Расположение каналов : Front: L C R, Side: L R, LFE
Частота : 48,0 КГц
Битовая глубина : 24 бит
Метод сжатия : С потерями
Размер потока : 981 Мбайт (7%)
Заголовок : DTS 5.1 @ 1536 kbps
Язык : English
Default : Нет
Forced : Нет

Аудио #9
Идентификатор : 10
Формат : AC-3
Формат/Информация : Audio Coding 3
Профиль формата : Dolby Digital
Расширение режима : CM (complete main)
Параметр Endianness формата : Big
Идентификатор кодека : A_AC3
Продолжительность : 1 ч. 30 м.
Вид битрейта : Постоянный
Битрейт : 192 Кбит/сек
Каналы : 2 канала
Расположение каналов : Front: L R
Частота : 48,0 КГц
Битовая глубина : 16 бит
Метод сжатия : С потерями
Размер потока : 125 Мбайт (1%)
Заголовок : AC3 2.0 @ 192 kbps - Commentary
Язык : English
Default : Нет
Forced : Нет

Текст #1
Идентификатор : 11
Формат : UTF-8
Идентификатор кодека : S_TEXT/UTF8
Идентификатор кодека/Информация : UTF-8 Plain Text
Заголовок : SDI Media Group, R5
Язык : Russian
Default : Нет
Forced : Нет

Текст #2
Идентификатор : 12
Формат : UTF-8
Идентификатор кодека : S_TEXT/UTF8
Идентификатор кодека/Информация : UTF-8 Plain Text
Заголовок : SDH
Язык : English
Default : Нет
Forced : Нет

Меню
00:00:00.000 : en:Chapter 1
00:05:34.125 : en:Chapter 2
00:09:31.570 : en:Chapter 3
00:12:26.620 : en:Chapter 4
00:17:18.829 : en:Chapter 5
00:23:06.968 : en:Chapter 6
00:28:17.737 : en:Chapter 7
00:32:40.166 : en:Chapter 8
00:35:47.436 : en:Chapter 9
00:38:57.209 : en:Chapter 10
00:44:20.949 : en:Chapter 11
00:49:27.673 : en:Chapter 12
00:52:32.816 : en:Chapter 13
00:56:14.829 : en:Chapter 14
01:01:54.419 : en:Chapter 15
01:05:41.228 : en:Chapter 16
01:09:38.257 : en:Chapter 17
01:13:04.838 : en:Chapter 18
01:15:32.611 : en:Chapter 19
01:18:15.190 : en:Chapter 20
01:21:49.988 : en:Chapter 21
01:22:57.806 : en:Chapter 22
01:24:35.028 : en:Chapter 23
01:26:10.165 : en:Chapter 24

pb.wtf



Скачать Тринадцать привидений через торрент http://pic.kartinco.top/images/1/1nso96cys9.jpg Скачать фильм Тринадцать привидений через торрент бесплантно в хорошем качестве Описание: После смерти своего странного дядюшки Сайруса, Артур Критикос унаследовал его не менее странный дом. В этом причудливом здании ... 8.3 10 4
Info! Золотая раздача, скачанное не засчитывается.
Торрент: Зарегистрирован [2013-02-18 19:44] · скачан: 36 раз
Статус: √ проверено
Размер: 13.88 GB
Как cкачать? Как скачать Тринадцать привидений через торрент | qTorrent

% Раздел Тема Автор DL S | L
Фильмы 2001-2005 [ 1.46 GB ] Тринадцать привидений / Thir13en Ghosts [2001 BDRip + AVO + Оригинал ] PsYcho Скачать
1 | 0
Фильмы [HD 720p, 1080p] (Хороший звук DUB, MVO) [ 13.88 GB ] Тринадцать привидений / Thir13en Ghosts [2001 BDRip 1080p ] DUB + 4xMVO + 2xAVO + Original + Sub Ворон Скачать
1 | 0
Фильмы 2001-2005 [ 1.37 GB ] Тринадцать привидений / Thir13en Ghosts [2001 DVDRip] F.U. Скачать
1 | 0
Фильмы [HD 720p, 1080p] (Хороший звук DUB, MVO) [ 4.66 GB ] Тринадцать привидений / Thir13en Ghosts [2001 BDRip 720p] NarutoSasuke Скачать
1 | 0

28-11-2019 20:33  

Отключить всю рекламу на сайте

18-02-2013 21:26 Тринадцать привидений Скачать торрент  

Соломон Немни писал(а):

Я чо то не пойму, это семейный что ль, как был когда то давно Охотники на Привидений, не..? Ошибаюсь?

Ошибаешсяpb.wtf



18-02-2013 21:43 Тринадцать привидений Скачать торрент  

Фильм ЯД. Давно знаю ! Советую всем!pb.wtf



18-02-2013 21:52 Тринадцать привидений Скачать торрент  

Фильм супер!спасибо pb.wtf



18-02-2013 22:21 Тринадцать привидений Скачать торрент  

Фильм бомба!!! Спасибо!pb.wtf



19-02-2013 03:26 Тринадцать привидений Скачать торрент  

Супер фильм моих школьных годов.
Картина смотрится на одном дыхании.
Всем советую посмотреть!!! :jest3:pb.wtf



26-05-2013 20:06 Тринадцать привидений Скачать торрент  

Дайте скорости !!!pb.wtf



    Дорогой пользователь! Огромная просьба, поблагодарите релизера, оцените раздачу и оставьте свои комментарий, если Вы скачали Тринадцать привидений через торрент бесплатно! Внесите свою лепту в развитие PiratBit!
    Комментировать посты могут только пользователи прошедшие не сложную регистрацию
    Показать сообщения:    

    Тринадцать привидений через торрент
    Скачать бесплатно Тринадцать привидений
    Тринадцать привидений скачать торрент
    Тринадцать привидений смотреть онлайн
    Cкачать фильм Тринадцать привидений бесплатно
    Тринадцать привидений скачать торрент в хорошем качестве
    Тринадцать привидений смотреть онлайн бесплатно в хорошем качестве


    Вы не можете начинать темы
    Вы не можете отвечать на сообщения
    Вы не можете редактировать свои сообщения
    Вы не можете удалять свои сообщения
    Вы не можете голосовать в опросах
    Вы не можете прикреплять файлы к сообщениям
    Вы можете скачивать файлы