Ссылка на приватное зеркало всего за 1$. Внимание количество ограничено!!!

iTunes

iTunes

iTunes

1

iTunes

iTunes

iTunes

iTunes

iTunes

30
pack

$ от Little Big

ВАЖНО

!!Акция!!

Alien_RageХит недели

RePack

Resident Evil 21

ИГРА 18+

pack

RePack

jed

!!Акция!!

Alien_Rage

RePack

fifa19

RePack

Assassins Creed: Odyssey

RePack

NEED FOR SPEED™ PAYBACK

4 сезон

9 сезон

Бесстыжие 9 сезон

Все сериалы

все сериалы на PB.wtf

RePack

FAR CRY 5
  

Там, где деньги / Where the Money Is (Марек Каневска / Marek Kanievska) [2000 г., Драма, Комедия, Криминал, HDTV 1080i, MVO] pb.wtf

Там, где деньги через торрент pb.wtf

Размер: 7.45 GB | Добавлен: 7 лет 4 мес. назад | Торрент скачан:33 раза
Скачать  

19-02-2013 08:05 Там, где деньги Скачать торрент  

Там, где деньги / Where the Money Is
«Another con. Another sting. Another day.»

Год выпуска: 2000
Страна: США, Германия, Великобритания
Жанр: Драма, Комедия, Криминал
Продолжительность: 01:28:20
Перевод: Профессиональный (многоголосый, закадровый)
Русские субтитры: нет

Режиссер: Марек Каневска / Marek Kanievska

В ролях: Пол Ньюман / Paul Newman, Линда Фиорентино / Linda Fiorentino, Дермот Малруни / Dermot Mulroney, Сьюзэн Барнс / Susan Barnes, Энн Питоняк / Anne Pitoniak, Брюс МакВитти / Bruce MacVittie, Ирма Ст. Пауле / Irma St. Paule, Мишель Перрон / Michel Perron, Дороти Гордон / Dorothy Gordon, Рита Такетт / Rita Tuckett

Описание: Кэрол, королева выпускного бала в маленьком городке, вышла замуж за своего короля по имени Уэйн, который стал обычным работягой. Теперь она работает медсестрой в доме для престарелых, куда привозят из тюрьмы перенесшего инфаркт пожилого заключенного — мистера Хенри Мэннинга.

Тридцать лет он был неуловимым грабителем банков и попался, когда во всем городе отключили свет, и он оказался запертым в сейфе. Кэрол сразу же засомневалась, так ли тяжело болен этот симпатичный старик, и стала провоцировать его, даже попробовала соблазнить его. Тот не реагировал. Вместе с мужем она вывезла его на рыбалку и, когда муж отошел удить рыбу, столкнула «инвалида» в воду вместе с коляской. Тут он и раскрылся.

Старичок оказался еще хоть куда — выпив виски, он потанцевал с Кэрол и… смылся. Вернулся сам. Вскоре Кэрол узнала, что до отсидки мистер Мэннинг отдал все деньги на хранение другу, тот умер, а деньги должен был сохранить сын покойного. Изучивший йогу, медицину и прочее, чтобы сымитировать инфаркт, Мэннинг обратился, наконец, за своими деньгами.

Сыночек же заявил, что денег не даст, а, если старик будет надоедать, то он пойдет в полицию. Тогда сексапильная Кэрол, отчетливо представляющая себе свое будущее в роли медсестры в этом захолустье, предлагает Мэннингу ограбить банк. Муж узнает об их бурной деятельности и… присоединяется к делу…


Качество: HDTV
Формат: MKV
Видео кодек: H.264
Аудио кодек: AC3
Видео: 1920x1080 (16:9), 29.970 fps, 14.7 Mbps (0.176 bit/pixel)
Аудио #1: AC-3, 48.0 KHz, 6 ch, 448 Kbps, CBR (Russian)
Аудио #2: AC-3, 48.0 KHz, 6 ch, 448 Kbps, CBR (English)



Oбщее
Уникальный идентификатор : 253030105762038615900974670856561283107 (0xBE5BD36479487ACFA0B4138DE632D023)
Полное имя : E:Там, где деньги (2000) HDTV 1080i.mkv
Формат : Matroska
Версия формата : Version 2
Размер файла : 7,45 Гбайт
Продолжительность : 1 ч. 28 м.
Режим общего битрейта : Переменный
Общий поток : 12,1 Мбит/сек
Дата кодирования : UTC 2012-08-18 05:07:26
Программа кодирования : mkvmerge v5.7.0 ('The Whirlwind') built on Jul 8 2012 20:08:51
Библиотека кодирования : libebml v1.2.3 + libmatroska v1.3.0

Видео
Идентификатор : 1
Формат : MPEG Video
Версия формата : Version 2
Профиль формата : Main@High
Параметр BVOP формата : Нет
Параметр матрицы формата : Выборочная
Идентификатор кодека : V_MPEG2
Идентификатор кодека/Информация : MPEG 1 or 2 Video
Вид битрейта : Переменный
Битрейт : 10,9 Мбит/сек
Максимальный битрейт : 14,7 Мбит/сек
Ширина : 1920 пикселей
Высота : 1080 пикселей
Соотношение сторон : 16:9
Режим частоты кадров : Переменный
Частота кадров в оригинале : 29,970 кадров/сек
Цветовое пространство : YUV
Субдискретизация насыщенности : 4:2:0
Битовая глубина : 8 бит
Тип развёртки : Чересстрочная
Порядок развёртки : Нижнее поле первое
Метод сжатия : С потерями
Заголовок : Where the Money Is (2000) HDTV 1080i
Язык : English
Default : Да
Forced : Нет

Аудио #1
Идентификатор : 2
Формат : AC-3
Формат/Информация : Audio Coding 3
Расширение режима : CM (complete main)
Параметр Endianness формата : Big
Идентификатор кодека : A_AC3
Продолжительность : 1 ч. 28 м.
Вид битрейта : Постоянный
Битрейт : 448 Кбит/сек
Каналы : 6 каналов
Расположение каналов : Front: L C R, Side: L R, LFE
Частота : 48,0 КГц
Битовая глубина : 16 бит
Метод сжатия : С потерями
Размер потока : 283 Мбайт (4%)
Заголовок : Многоголосый (Twister)
Язык : Russian
Default : Да
Forced : Нет

Аудио #2
Идентификатор : 3
Формат : AC-3
Формат/Информация : Audio Coding 3
Расширение режима : CM (complete main)
Параметр Endianness формата : Big
Идентификатор кодека : A_AC3
Продолжительность : 1 ч. 28 м.
Вид битрейта : Постоянный
Битрейт : 448 Кбит/сек
Каналы : 6 каналов
Расположение каналов : Front: L C R, Side: L R, LFE
Частота : 48,0 КГц
Битовая глубина : 16 бит
Метод сжатия : С потерями
Размер потока : 283 Мбайт (4%)
Заголовок : Оригинал
Язык : English
Default : Нет
Forced : Нет
pb.wtf



Скачать Там, где деньги через торрент http://pic.kartinco.top/images/1/1951iqc2xh.jpg Скачать фильм Там, где деньги через торрент бесплантно в хорошем качестве Описание: Кэрол, королева выпускного бала в маленьком городке, вышла замуж за своего короля по имени Уэйн, который стал обычным работягой. ... 10 10 1
Info! Золотая раздача, скачанное не засчитывается.
Торрент: Зарегистрирован [2013-02-19 08:05] · скачан: 33 раз
Статус: √ проверено
Размер: 7.45 GB
Как cкачать? Как скачать Там, где деньги через торрент | qTorrent

28-11-2019 20:33  

Отключить всю рекламу на сайте

    Дорогой пользователь! Огромная просьба, поблагодарите релизера, оцените раздачу и оставьте свои комментарий, если Вы скачали Там, где деньги через торрент бесплатно! Внесите свою лепту в развитие PiratBit!
    Комментировать посты могут только пользователи прошедшие не сложную регистрацию
    Показать сообщения:    

    Там, где деньги через торрент
    Скачать бесплатно Там, где деньги
    Там, где деньги скачать торрент
    Там, где деньги смотреть онлайн
    Cкачать фильм Там, где деньги бесплатно
    Там, где деньги скачать торрент в хорошем качестве
    Там, где деньги смотреть онлайн бесплатно в хорошем качестве


    Вы не можете начинать темы
    Вы не можете отвечать на сообщения
    Вы не можете редактировать свои сообщения
    Вы не можете удалять свои сообщения
    Вы не можете голосовать в опросах
    Вы не можете прикреплять файлы к сообщениям
    Вы можете скачивать файлы